Welcome Guest ( Log In | Register )

> Excantation - Pilgrimage Of The Imperator (2018), Funeral Doom Metal
post Apr 17 2018, 14:29:45
Post #1

Маньяк
**********
Group: Металариец
Posts: 1,114
Releases: 940
From: Новороссийск
On Forums: 10 years 4 months
Thanks: 18304 time(s)
Russian Federation


(IMG:https://metalarea.org/images/audiocovers/2018_Apr/acov_tid304781_thumb.jpg)

*Artist: Excantation
*Album: Pilgrimage Of The Imperator
*Year: 2018
*Genre: Funeral Doom Metal
*Country: United States (IMG:https://metalarea.org/forum/style_images/flags/United%20States.png)
*Format: mp3@CBR320kbps
*Size: 88MB

Tracklist:
01. Insurmountable Lapse 09:22
02. A Peasant's Descent 09:52
03. A Trinity Of Nooses 08:49
04. Narrative Of The Adversary 10:18
******************************
Total playing time: 38:23




Technical info
(IMG:https://metalarea.org/images/spectrogram/2018_Apr/565a53f557e9a193f1c85cb4a99af10b.png)
Input File: 01 Insurmountable Lapse.mp3
Channels : 2
Sample Rate : 44100
Precision : 16-bit
Duration : 00:09:22.99 = 24828035 samples = 42224.5 CDDA sectors
File Size : 22.5M
Bit Rate : 320k
Sample Encoding: MPEG audio (layer I, II or III)
Comments :
Title=Insurmountable Lapse
Artist=Excantation
Album=Pilgrimage of the Imperator
Tracknumber=01
Year=2018
Genre=Doom Metal



Register


Go to the top of the page
  Insert nick Quick quote
+Quote Post
 
Start new topic
Replies (1 - 2)
post Apr 18 2018, 07:03:31
Post #2

gazing the void
**
Group: Завсегдатай
Posts: 175
Releases: 2
On Forums: 4 years 4 months
Thanks: 165 time(s)
Zimbabwe


Ryan Wilson: Keyboards, Organ
See also: Hordes of the Morning Star, Intestinal Disgorge, Pneuma Hagion, Profundum, The Howling Void, ex-Normpeterson, Ancient Crypt, Endless Disease, Serpentine Tunnels, Tethered to a Dying Animal, ex-Abosranie Bogom, ex-Carrion Throne

Shane Elwell: Vocals, Guitars, Bass, Drums
See also: Ballgag, Flesh Consumed, Grieved, Images of Violence, Intestinal Disgorge, Urosepsis, Vaginal Bear Trap, Wilting Away, Oppressive Force, Urosepsis, ex-Defiled Crypt, ex-In Oblivion
Go to the top of the page
  Insert nick Quick quote
+Quote Post
post Oct 8 2018, 18:53:05
Post #3

####!111
**************
Group: Металариец
Posts: 4,472
Releases: 134
From: The Mountain Of DOOM
On Forums: 13 years 11 months
Thanks: 6283 time(s)
Russian Federation


Крепкий середнячок.
Звучание по олдскулу, но несколько суховато для фьюнерала.
Go to the top of the page
  Insert nick Quick quote
+Quote Post

Reply to this topicStart new topic
1 User(s) are reading this topic (1 Guests and 0 Anonymous Users)
0 Members:

 



- Lo-Fi Version Support form
Copyrights and abuse reports form
Time is now: 24th September 2021 - 06:09:02