Welcome Guest ( Log In | Register )

> Sungoddess - Akumu/悪夢 (2010), Symphonic Black Metal
post Apr 17 2018, 14:31:57
Post #1

Serial Uploader
Group Icon
Group: V.I.P
Posts: 37,601
Releases: 35773
From: Lithuania
On Forums: 13 years 1 week
Thanks: 432810 time(s)
Lithuania


(IMG:https://metalarea.org/images/audiocovers/2018_Apr/acov_tid304782_thumb.jpg)

*Artist: Sungoddess
*Album: Akumu/悪夢
*Year: 2010
*Genre: Symphonic Black Metal
*Country: Japan (IMG:https://metalarea.org/forum/style_images/flags/Japan.png)
*Format: mp3@VBR275kbps
*Size: 93MB

Tracklist:
01. Intro 01:34
02. 悪夢 (Akumu) 04:48
03. 破滅 (Nametsu) 06:03
04. 悲劇 (Higeki) 04:52
05. 奈落 (Naraku) 05:37
06. 葬送 (Sōsō) 06:14
07. 絶望 (Zetsubō) 04:51
08. 幻惑 (Genwaku) 06:24
09. Interlude 01:11
10. 黒夜 (Kokuya) 04:44
******************************
Total playing time: 46:18

(IMG:https://metalarea.org/images/myspace.png)


(IMG:https://metalarea.org/images/youtube.png)

Extended info
Scene CD-rip


Technical info
(IMG:https://metalarea.org/images/spectrogram/2018_Apr/30542395c1a4da90c843c1f4e076ccda.png)
Input File: 03-sungoddess-nametsu.mp3
Channels : 2
Sample Rate : 44100
Precision : 16-bit
Duration : 00:06:03.65 = 16037097 samples = 27274 CDDA sectors
File Size : 12.7M
Bit Rate : 279k
Sample Encoding: MPEG audio (layer I, II or III)
Comments :
Title=Nametsu
Artist=Sungoddess
Album=Akumu
Tracknumber=3/10
Year=2010-00-00
Genre=Black Metal



Register


Go to the top of the page
  Insert nick Quick quote
+Quote Post
 
Start new topic
Replies (1 - 4)
post Apr 18 2018, 10:27:47
Post #2

Dark Ambient Shoujo
**********
Group: Металариец
Posts: 1,379
Releases: 2
On Forums: 12 years 5 months
Thanks: 818 time(s)
Russian Federation


Zetsubō – лучше и не скажешь.
Go to the top of the page
  Insert nick Quick quote
+Quote Post
post May 23 2018, 13:49:01
Post #3

Group: Дух
Posts: 1
Releases: 0
On Forums: 4 years 3 weeks
Thanks: 0 time(s)
Sweden


Link down so fast... please reupload (IMG:style_emoticons/default/smile2.gif)
Go to the top of the page
  Insert nick Quick quote
+Quote Post
post May 24 2018, 09:48:50
Post #4

Правь статус, ####!111
**************
Group: Металариец
Posts: 4,856
Releases: 373
From: MoscoW
On Forums: 14 years 6 months
Thanks: 6323 time(s)
Russian Federation


Есть же на:
Register

Прямая ссылка на Мыло - 92.8Mb:
Register

Added by: gena bukin
(IMG:style_emoticons/default/metaler.gif)


Thanks:
(1) darkonyx,
Go to the top of the page
  Insert nick Quick quote
+Quote Post
post Jun 10 2021, 18:42:51
Post #5

Два Литра
**
Group: Завсегдатай
Posts: 137
Releases: 0
On Forums: 5 years 9 months
Thanks: 148 time(s)
Palau


2010 альбомчик доехал через 8 лет, а 2018 ?.. (IMG:style_emoticons/default/12.gif) (IMG:style_emoticons/default/6.gif)

Register


Thanks:
(1) varlam4,
Go to the top of the page
  Insert nick Quick quote
+Quote Post

Reply to this topicStart new topic
1 User(s) are reading this topic (1 Guests and 0 Anonymous Users)
0 Members:

 



- Lo-Fi Version Support form
Copyrights and abuse reports form
Time is now: 18th June 2021 - 06:02:29