Welcome Guest ( Log In | Register )

> Raat - Ethereal Twilight [ep] (2018), Atmospheric Post-Black Metal
post Apr 18 2018, 12:26:57
Post #1

Serial Uploader
Group Icon
Group: V.I.P
Posts: 37,921
Releases: 36064
From: Lithuania
On Forums: 13 years 5 months
Thanks: 440048 time(s)
Lithuania


(IMG:https://metalarea.org/images/audiocovers/2018_Apr/acov_tid304830_thumb.jpg)

*Artist: Raat
*Album: Ethereal Twilight [ep]
*Year: 2018
*Genre: Atmospheric Post-Black Metal
*Country: India (IMG:https://metalarea.org/forum/style_images/flags/India.png)
*Format: mp3@CBR320kbps
*Size: 56MB

Tracklist:
01. Stygian 04:15
02. Ataraxia 05:29
03. Intemerate 06:15
04. Wash Away 08:26
******************************
Total playing time: 24:25


(IMG:https://metalarea.org/images/youtube.png)

Technical info
(IMG:https://metalarea.org/images/spectrogram/2018_Apr/90670c781a76c885dfdd381ca91f2301.png)
Input File: 02. Ataraxia.mp3
Channels : 2
Sample Rate : 44100
Precision : 16-bit
Duration : 00:05:29.04 = 14510796 samples = 24678.2 CDDA sectors
File Size : 13.3M
Bit Rate : 324k
Sample Encoding: MPEG audio (layer I, II or III)
Comments :
Title=Ataraxia
Artist=Raat
Album=Ethereal Twilight
Tracknumber=2
Year=2018



Register


Go to the top of the page
  Insert nick Quick quote
+Quote Post
 
Start new topic
Replies (1 - 2)
post Apr 22 2018, 22:18:39
Post #2

Четыре Литра
****
Group: Металариец
Posts: 397
Releases: 1
On Forums: 11 years 5 months
Thanks: 210 time(s)
Russian Federation


Неплохо, для Индии.
Go to the top of the page
  Insert nick Quick quote
+Quote Post
post Oct 13 2021, 22:01:48
Post #3

Четыре Литра
****
Group: Металариец
Posts: 301
Releases: 4
On Forums: 6 years 2 months
Thanks: 482 time(s)
Palau


re
Register


BTW, Raat means Night


Thanks:
(1) wreak,
Go to the top of the page
  Insert nick Quick quote
+Quote Post

Reply to this topicStart new topic
2 User(s) are reading this topic (2 Guests and 0 Anonymous Users)
0 Members:

 



- Lo-Fi Version Support form
Copyrights and abuse reports form
Time is now: 3rd December 2021 - 05:37:10