Welcome Guest ( Log In | Register )

> Critical Heartbeat - Scream (2018), Heavy Metal
post Apr 18 2018, 12:58:02
Post #1

Serial Uploader
Group Icon
Group: V.I.P
Posts: 40,997
Releases: 39088
From: Lithuania
On Forums: 15 years 3 months
Thanks: 495749 time(s)
Lithuania


(IMG:https://metalarea.org/images/audiocovers/2018_Apr/acov_tid304832_thumb.jpg)

*Artist: Critical Heartbeat
*Album: Scream
*Year: 2018
*Genre: Heavy Metal
*Country: Switzerland (IMG:https://metalarea.org/forum/style_images/flags/Switzerland.png)
*Format: mp3@CBR320kbps
*Size: 94MB

Tracklist:
01. Intro
02. Alone
03. Our Beginning
04. Confusions And Illusions
05. Without You
06. The Fight
07. Scream
08. Without You (Acoustic)
09. Scream (Acoustic)
******************************
Total playing time: 41:04


(IMG:https://metalarea.org/images/youtube.png)

Technical info
(IMG:https://metalarea.org/images/spectrogram/2018_Apr/b66858de40484c405b67397f944a6168.png)
Input File: 02. Alone.mp3
Channels : 2
Sample Rate : 44100
Precision : 16-bit
Duration : 00:05:07.10 = 13543154 samples = 23032.6 CDDA sectors
File Size : 12.3M
Bit Rate : 321k
Sample Encoding: MPEG audio (layer I, II or III)
Comments :
Title=Alone
Artist=Critical Heartbeat
Album=Scream
Tracknumber=02/09
Year=2018
Genre=Heavy Metal
Discnumber=1/1



Register


Go to the top of the page
  Insert nick Quick quote
+Quote Post
 
Start new topic
Replies (1 - 3)
post Apr 19 2018, 06:57:54
Post #2

hearer & reader
**************
Group: Металариец
Posts: 10,727
Releases: 230
From: Moscow
On Forums: 16 years 2 weeks
Thanks: 13369 time(s)
Russian Federation



тяжко такое слушать..


Thanks:
(1) Andrew,
Go to the top of the page
  Insert nick Quick quote
+Quote Post
post Apr 20 2018, 21:53:26
Post #3

MDM-Thrash Metal
**************
Group: Металариец
Posts: 11,975
Releases: 1683
From: Одесса
On Forums: 16 years 1 month
Thanks: 39330 time(s)
Ukraine


ЦИТАТА(AHBAnep @ Apr 19 2018, 08:57:54) *
тяжко такое слушать..

100%!
Go to the top of the page
  Insert nick Quick quote
+Quote Post
post Sep 18 2023, 21:20:42    Сейчас играет: Re-up please ;-)
Post #4

Правь статус, ####!111
**************
Group: Металариец
Posts: 3,279
Releases: 0
From: Sofia
On Forums: 15 years 11 months
Thanks: 115 time(s)
Bulgaria


Re-up please (IMG:style_emoticons/default/pray.gif) (IMG:style_emoticons/default/pray.gif) (IMG:style_emoticons/default/pray.gif)
Go to the top of the page
  Insert nick Quick quote
+Quote Post

Reply to this topicStart new topic
1 User(s) are reading this topic (1 Guests and 0 Anonymous Users)
0 Members:

 



- Lo-Fi Version Support form
Copyrights and abuse reports form
Time is now: 26th September 2023 - 00:29:41