Welcome Guest ( Log In | Register )

> И неформату есть предел.

Рэп/хип-хоп/шансон/поп удаляются. Для них есть свои порталы.

> Earth Flight - Riverdragons & Elephant Dreams (2018), Progressive Rock (D4)
post Apr 21 2018, 11:27:31
Post #1

Pepega
Group Icon
Group: V.I.P
Posts: 6,408
Releases: 2059
On Forums: 15 years 3 weeks
Thanks: 64597 time(s)
Saudi Arabia


(IMG:https://metalarea.org/images/audiocovers/2018_Apr/acov_tid304974_thumb.jpg)

*Artist: Earth Flight
*Album: Riverdragons & Elephant Dreams
*Year: 2018
*Genre: Progressive Rock
*Country: Germany (IMG:https://metalarea.org/forum/style_images/flags/Germany.png)
*Format: mp3@CBR320kbps
*Size: 120MB

Tracklist:
01. Ulysses 1:52
02. Mirai 8:20
03. Harbinger 6:30
04. Sinus 8:51
05. Premonition 5:56
06. Tempter 7:47
07. Bedlam 9:29
******************************
Total playing time: 48:45



Technical info
(IMG:https://metalarea.org/images/spectrogram/2018_Apr/e932b530c95299f87944ea9305e9133a.png)
Input File: 02. Mirai.mp3
Channels : 2
Sample Rate : 44100
Precision : 16-bit
Duration : 00:08:20.40 = 22067596 samples = 37529.9 CDDA sectors
File Size : 20.1M
Bit Rate : 321k
Sample Encoding: MPEG audio (layer I, II or III)
Comments :
Title=Mirai
Artist=Earth Flight
Album=Riverdragons & Elephant Dreams
Tracknumber=2
Year=2018
Genre=Progressive Rock



Register


Go to the top of the page
  Insert nick Quick quote
+Quote Post
 
Start new topic
Replies (1 - 2)
post May 18 2018, 20:40:03
Post #2

21st Century Schizoid Man
**************
Group: Металариец
Posts: 6,935
Releases: 84
From: Pdmsk
On Forums: 13 years 4 months
Thanks: 5841 time(s)
Russian Federation


Красивый альбом. По жанру скорее heavy prog, утяжелённый прогрессив-рок.


Thanks:
Go to the top of the page
  Insert nick Quick quote
+Quote Post
post Jun 25 2018, 07:32:19
Post #3

Group: Подсевший
Posts: 30
Releases: 0
From: Бийск
On Forums: 3 years 9 months
Thanks: 6 time(s)
Russian Federation


ЦИТАТА
утяжелённый прогрессив-рок.

Ну чё-то примерно такое, да.
Вообще, самобытный материал.
Go to the top of the page
  Insert nick Quick quote
+Quote Post

Reply to this topicStart new topic
1 User(s) are reading this topic (1 Guests and 0 Anonymous Users)
0 Members:

 



- Lo-Fi Version Support form
Copyrights and abuse reports form
Time is now: 20th September 2021 - 20:46:24