Welcome Guest ( Log In | Register )

> И неформату есть предел.

Рэп/хип-хоп/шансон/поп удаляются. Для них есть свои порталы.

> Oak Pantheon - Sol [ep] (2018), Neofolk
post Apr 23 2018, 04:23:26
Post #1

Правь статус, ####!111
**************
Group: Металариец
Posts: 4,832
Releases: 1474
From: Brazil
On Forums: 9 years 10 months
Thanks: 56222 time(s)
Brazil


(IMG:https://metalarea.org/images/audiocovers/2018_Apr/acov_tid305052_thumb.png)

*Artist: Oak Pantheon
*Album: Sol [ep]
*Year: 2018
*Genre: Neofolk
*Country: United States (IMG:https://metalarea.org/forum/style_images/flags/United%20States.png)
*Format: mp3@CBR320kbps
*Size: 57MB

Tracklist:
1. Sol 04:00
2. Falling 03:16
3. A Prayer for Light 05:28
4. Mirth of the Divine 03:08
5. Komuso 03:17
6. So Grossly Incandescent 04:17
******************************
Total playing time: 23:26



Technical info
(IMG:https://metalarea.org/images/spectrogram/2018_Apr/59c2b3544f1b2f546b162493e8bc499e.png)
Input File: Oak Pantheon - Sol - 02 Falling.mp3
Channels : 2
Sample Rate : 44100
Precision : 16-bit
Duration : 00:03:16.80 = 8678792 samples = 14759.9 CDDA sectors
File Size : 7.95M
Bit Rate : 323k
Sample Encoding: MPEG audio (layer I, II or III)
Comments :
Title=Falling
Artist=Oak Pantheon
Album=Sol
Tracknumber=2
Year=2018



Register


Go to the top of the page
  Insert nick Quick quote
+Quote Post
 
Start new topic
Replies (1 - 6)
post Apr 23 2018, 16:28:19
Post #2

Пять Литров
*****
Group: Металариец
Posts: 431
Releases: 18
On Forums: 8 years 3 months
Thanks: 767 time(s)
Iceland


"...in our first fully neofolk EP."

But yeah "Metal"...of course.


Thanks:
(1) krotovich,
Go to the top of the page
  Insert nick Quick quote
+Quote Post
post Apr 23 2018, 19:12:41
Post #3

Маньяк
**********
Group: Металариец
Posts: 1,321
Releases: 1
From: Беларусь
On Forums: 13 years 11 months
Thanks: 561 time(s)
Russian Federation


Ну и где метал? Даркфолк - в неформат!
Go to the top of the page
  Insert nick Quick quote
+Quote Post
post Apr 26 2018, 07:54:07
Post #4

Маньяк
**********
Group: Металариец
Posts: 1,008
Releases: 0
From: Харьков
On Forums: 13 years 9 months
Thanks: 866 time(s)
Ukraine


Напоминает Agalloch и их любимый у меня EP'шник Mantle. Круть.
Go to the top of the page
  Insert nick Quick quote
+Quote Post
post Apr 26 2018, 09:51:28
Post #5

Мегаманьяк
***********
Group: Металариец
Posts: 1,989
Releases: 0
On Forums: 12 years 9 months
Thanks: 826 time(s)
Antarctica


Раз послушать можно.
Go to the top of the page
  Insert nick Quick quote
+Quote Post
post Apr 26 2018, 11:59:04
Post #6

Литр
*
Group: Подсевший
Posts: 76
Releases: 0
On Forums: 12 years 11 months
Thanks: 43 time(s)
Russian Federation


ЦИТАТА(Moonshtook @ 23rd April 2018 - 23:12:41) *
EP'шник Mantle

Но это же LP'шник!


Thanks:
(1) Ghostb,
Go to the top of the page
  Insert nick Quick quote
+Quote Post
post Sep 22 2021, 03:54:29
Post #7

Group: Дух
Posts: 3
Releases: 0
On Forums: 1 year 3 weeks
Thanks: 0 time(s)
United States


QUOTE(Kvlt @ Apr 23 2018, 16:28:19) *
"...in our first fully neofolk EP."

But yeah "Metal"...of course.


Okay and?
Go to the top of the page
  Insert nick Quick quote
+Quote Post

Reply to this topicStart new topic
1 User(s) are reading this topic (1 Guests and 0 Anonymous Users)
0 Members:

 



- Lo-Fi Version Support form
Copyrights and abuse reports form
Time is now: 9th December 2021 - 04:44:10