Welcome Guest ( Log In | Register )

> Leviathan - Can't Be Seen By Looking: Blurring The Lines, Clouding The Truth (2018), Progressive/Power Metal
post Apr 26 2018, 13:00:41
Post #1

Serial Uploader
Group Icon
Group: V.I.P
Posts: 37,556
Releases: 35729
From: Lithuania
On Forums: 12 years 10 months
Thanks: 431936 time(s)
Lithuania


(IMG:https://metalarea.org/images/audiocovers/2018_Apr/acov_tid305190_thumb.jpg)

*Artist: Leviathan
*Album: Can't Be Seen By Looking: Blurring The Lines, Clouding The Truth
*Year: 2018
*Genre: Progressive/Power Metal
*Country: United States (IMG:https://metalarea.org/forum/style_images/flags/United%20States.png)
*Format: mp3@CBR320kbps
*Size: 123MB

Tracklist:
01. Life Beyond Meaning 12:30
02. Mercy Kill Liberty 05:08
03. Properly Channeled Rage 09:00
04. The Struggle To Be Seen As Human 07:13
05. Turning Lost Boys Into Found Men 06:47
06. Lies Are The New Normal (No Lesser Of Evil) 12:58
******************************
Total playing time: 53:36

(IMG:https://metalarea.org/images/myspace.png)


(IMG:https://metalarea.org/images/youtube.png)

Technical info
(IMG:https://metalarea.org/images/spectrogram/2018_Apr/415d62035daf254b0f551b1392f9489e.png)
Input File: 02. Mercy Kill Liberty.mp3
Channels : 2
Sample Rate : 44100
Precision : 16-bit
Duration : 00:05:08.46 = 13603042 samples = 23134.4 CDDA sectors
File Size : 12.5M
Bit Rate : 323k
Sample Encoding: MPEG audio (layer I, II or III)
Comments :
Title=Mercy Kill Liberty
Artist=Leviathan
Album=Can't be Seen by Looking: Blurring the Lines, Clouding the Truth
Tracknumber=2/6
Year=2018
Genre=Progressive Metal
Discnumber=1/1



Register


Go to the top of the page
  Insert nick Quick quote
+Quote Post
 
Start new topic
Replies (1 - 4)
post Apr 26 2018, 16:16:40
Post #2

Правь статус, ####!111
**************
Group: Металариец
Posts: 25,974
Releases: 18630
From: Г.Харьков
On Forums: 8 years 11 months
Thanks: 368901 time(s)
Unknown


Register


Go to the top of the page
  Insert nick Quick quote
+Quote Post
post Apr 26 2018, 19:45:39
Post #3

Dark Ambient Shoujo
**********
Group: Металариец
Posts: 1,371
Releases: 2
On Forums: 12 years 4 months
Thanks: 816 time(s)
Russian Federation


ЦИТАТА
Can't Be Seen By Looking

(IMG:https://s3.narvii.com/image/stfx5okv2mwrsleyn32aggl2iucktjz2_hq.jpg)
Go to the top of the page
  Insert nick Quick quote
+Quote Post
post Apr 9 2021, 16:43:49
Post #4

Два Литра
**
Group: Завсегдатай
Posts: 167
Releases: 0
From: Russian Federation
On Forums: 14 years 8 months
Thanks: 3 time(s)
Russian Federation


Thank you very much, but unfortunately the link is no longer available (IMG:style_emoticons/default/6.gif)
Can anyone help?
Go to the top of the page
  Insert nick Quick quote
+Quote Post
post Apr 11 2021, 09:32:27
Post #5

Group Icon
Group: S-moderation team
Posts: 20,603
Releases: 1443
From: Zagreb
On Forums: 10 years 2 months
Thanks: 94447 time(s)
Croatia


Register


Thanks:
Go to the top of the page
  Insert nick Quick quote
+Quote Post

Reply to this topicStart new topic
1 User(s) are reading this topic (1 Guests and 0 Anonymous Users)
0 Members:

 



- Lo-Fi Version Support form
Copyrights and abuse reports form
Time is now: 5th May 2021 - 23:53:42