Welcome Guest ( Log In | Register )

> И неформату есть предел.

Рэп/хип-хоп/шансон/поп удаляются. Для них есть свои порталы.

> The Armed - Only Love (2018), Avant-Garde Black Metal/Mathcore/Post-Punk/Electroclash/Shoegaze
post Apr 26 2018, 13:53:08
Post #1

Don't be negative.
**************
Group: Металариец
Posts: 2,964
Releases: 776
From: Earthmother
On Forums: 13 years 7 months
Thanks: 10554 time(s)
Ukraine


(IMG:https://metalarea.org/images/audiocovers/2018_Apr/acov_tid305198_thumb.jpg)

*Artist: The Armed
*Album: Only Love
*Year: 2018
*Genre: Avant-Garde Black Metal/Mathcore/Post-Punk/Electroclash/Shoegaze
*Country: United States (IMG:https://metalarea.org/forum/style_images/flags/United%20States.png)
*Format: mp3@CBR320kbps
*Size: 96MB

Tracklist:
1. Witness 03:08
2. Role Models 02:52
3. Nowhere to Be Found 02:21
4. Apperception 01:50
5. Parody Warning 02:05
6. Fortune's Daughter 03:29
7. Luxury Themes 05:18
8. Heavily Lined 02:27
9. Middle Homes 03:54
10. Ultraglass 03:22
11. On Jupiter 07:37
******************************
Total playing time: 38:23

(IMG:https://metalarea.org/images/youtube.png)



Extended info


Technical info
(IMG:https://metalarea.org/images/spectrogram/2018_Apr/4a5f9bf77d11b124c7c2483690e4b2c5.png)
Input File: 01 - Witness.mp3
Channels : 2
Sample Rate : 44100
Precision : 16-bit
Duration : 00:03:08.96 = 8333312 samples = 14172.3 CDDA sectors
File Size : 8.35M
Bit Rate : 353k
Sample Encoding: MPEG audio (layer I, II or III)
Comments :
Title=Witness
Artist=The Armed
Album=Only Love
Tracknumber=1/11
Year=2018
Genre=Mathcore
Discnumber=1/1



Register


Go to the top of the page
  Insert nick Quick quote
+Quote Post
 
Start new topic
Replies (1 - 7)
post Apr 27 2018, 07:23:39
Post #2

Don't be negative.
**************
Group: Металариец
Posts: 2,964
Releases: 776
From: Earthmother
On Forums: 13 years 7 months
Thanks: 10554 time(s)
Ukraine


а чего Liturgy в нефомрат не запилили, а?
Go to the top of the page
  Insert nick Quick quote
+Quote Post
post Apr 28 2018, 08:15:26
Post #3

пустое и необозримое
**************
Group: Металариец
Posts: 6,835
Releases: 0
On Forums: 8 years 2 months
Thanks: 4266 time(s)
Russian Federation


В контакте пишут что хардкор)
Go to the top of the page
  Insert nick Quick quote
+Quote Post
post Apr 28 2018, 08:18:51
Post #4

South Of Heaven /адепт ВУДУ
**************
Group: Металариец
Posts: 13,960
Releases: 9
On Forums: 14 years 2 weeks
Thanks: 5685 time(s)
Unknown


ЦИТАТА(garmonbozia @ Apr 28 2018, 10:15:26) *
В контакте пишут что хардкор)

ЦИТАТА
Avant-Garde Black Metal/Mathcore/Post-Punk/Electroclash/Shoegaze

Когда столько всего много, то с трудом верится, что это правда (IMG:style_emoticons/default/1488.gif)
Go to the top of the page
  Insert nick Quick quote
+Quote Post
post Apr 29 2018, 11:54:42
Post #5

Dark Ambient Shoujo
**********
Group: Металариец
Posts: 1,491
Releases: 5
On Forums: 15 years 3 months
Thanks: 997 time(s)
Russian Federation


ЦИТАТА(avkruchinin @ 28th April 2018 - 10:18:51) *
Когда столько всего много, то с трудом верится, что это

не релиз Эстетика.
fftgj


Thanks:
Go to the top of the page
  Insert nick Quick quote
+Quote Post
post Jan 3 2023, 04:14:08
Post #6

Маньяк
**********
Group: Металариец
Posts: 1,191
Releases: 0
From: Isla de Margarita, Venezuela
On Forums: 5 years 3 months
Thanks: 374 time(s)
Venezuela


Dead Link
Go to the top of the page
  Insert nick Quick quote
+Quote Post
post Jan 3 2023, 06:46:27
Post #7

Правь статус, ####!111
**************
Group: Металариец
Posts: 6,135
Releases: 0
On Forums: 5 years 9 months
Thanks: 19756 time(s)
Russian Federation


92 mb/320 kbps
Register


Thanks:
Go to the top of the page
  Insert nick Quick quote
+Quote Post
post Jan 3 2023, 08:37:25
Post #8

Правь статус, ####!111
**************
Group: Металариец
Posts: 3,139
Releases: 0
From: д. Гадюкино
On Forums: 9 years 10 months
Thanks: 3128 time(s)
Russian Federation


Register


Thanks:
Go to the top of the page
  Insert nick Quick quote
+Quote Post

Reply to this topicStart new topic
1 User(s) are reading this topic (1 Guests and 0 Anonymous Users)
0 Members:

 



- Lo-Fi Version Support form
Copyrights and abuse reports form
Time is now: 19th April 2024 - 23:55:45