Welcome Guest ( Log In | Register )

> Wesenwille - I: Wesenwille (2018), Progressive Black Metal
post Apr 27 2018, 11:13:04
Post #1

Правь статус, 616
**************
Group: Металариец
Posts: 7,776
Releases: 6142
From: 55°35’N 38°08’E
On Forums: 14 years 1 month
Thanks: 112772 time(s)
Russian Federation


(IMG:http://metalarea.org/images/audiocovers/2018_Apr/acov_tid305261_thumb.jpg)

*Artist: Wesenwille
*Album: I: Wesenwille
*Year: 2018
*Genre: Progressive Black Metal
*Country: Netherlands (IMG:http://metalarea.org/forum/style_images/flags/Netherlands.png)
*Format: mp3@CBR320kbps
*Size: 94MB

Tracklist:
1.The Churning Masses 09:45
2.Prosopopoeia 05:49
3.Golden Rays of the Sun 10:11
4.Rising Tides 09:15
5.From One We Are Many 05:54
******************************
Total playing time: 40:54




Extended info
CD, Redefining Darkness Records


Technical info
(IMG:http://metalarea.org/images/spectrogram/2018_Apr/b5654954485c9596fd898b2b84def26c.png)
Input File: 01 The Churning Masses.mp3
Channels : 2
Sample Rate : 44100
Precision : 16-bit
Duration : 00:09:45.12 = 25803880 samples = 43884.1 CDDA sectors
File Size : 23.5M
Bit Rate : 321k
Sample Encoding: MPEG audio (layer I, II or III)
Comments :
Title=The Churning Masses
Artist=Wesenwille
Album=I : Wesenwille
Tracknumber=1
Year=2018
Genre=Black Metal



Register


Go to the top of the page
  Insert nick Quick quote
+Quote Post
 
Start new topic
Replies (1 - 2)
post Apr 29 2018, 10:50:40
Post #2

Common dweller of hell
**************
Group: Металариец
Posts: 4,341
Releases: 12
From: Dnipro
On Forums: 14 years 4 weeks
Thanks: 1719 time(s)
Ukraine


Очень не плохо.
Go to the top of the page
  Insert nick Quick quote
+Quote Post
post Dec 8 2018, 06:51:45
Post #3

Crush! Kill! Destroy!
**************
Group: Металариец
Posts: 5,751
Releases: 15
From: Kaliningrad
On Forums: 14 years 8 months
Thanks: 5437 time(s)
Russian Federation


Подпишусь. Отличная работа!
Go to the top of the page
  Insert nick Quick quote
+Quote Post

Reply to this topicStart new topic
1 User(s) are reading this topic (1 Guests and 0 Anonymous Users)
0 Members:

 



- Lo-Fi Version Support form
Copyrights and abuse reports form
Time is now: 11th August 2022 - 18:45:09