Welcome Guest ( Log In | Register )

Объявления

* gmail.com упорно продолжает считать почту с нас "unsolicited" и отбивает в том числе и письма активации, поэтому просьба использовать альтернативные почтовые ящики.
------------
* gmail.com continues reject all mail from us as "unsolicited" (activation mails too) therefore please use alternate mail servers.
> Chrch - Light Will Consume Us All (2018), Sludge/Doom Metal
post Apr 27 2018, 14:55:15
Post #1

Serial Uploader
Group Icon
Group: V.I.P
Posts: 42,601
Releases: 40667
From: Lithuania
On Forums: 15 years 11 months
Thanks: 521335 time(s)
Lithuania


(IMG:https://metalarea.org/images/audiocovers/2018_Apr/acov_tid305275_thumb.jpg)

*Artist: Chrch
*Album: Light Will Consume Us All
*Year: 2018
*Genre: Sludge/Doom Metal
*Country: United States (IMG:https://metalarea.org/forum/style_images/flags/United%20States.png)
*Format: mp3@CBR320kbps
*Size: 103MB

Tracklist:
01. Infinite Return
02. Portals
03. Aether
******************************
Total playing time: 44:58




Technical info
(IMG:https://metalarea.org/images/spectrogram/2018_Apr/e39919209937cc9956c7a6d136ce0e1c.png)
Input File: 02. Portals.mp3
Channels : 2
Sample Rate : 44100
Precision : 16-bit
Duration : 00:14:49.32 = 39219012 samples = 66699 CDDA sectors
File Size : 35.6M
Bit Rate : 320k
Sample Encoding: MPEG audio (layer I, II or III)
Comments :
Title=Portals
Artist=Chrch
Album=Light Will Consume Us All
Tracknumber=2/3
Year=2018



Register


Go to the top of the page
  Insert nick Quick quote
+Quote Post
 
Start new topic
Replies (1 - 6)
post Apr 28 2018, 08:21:14
Post #2

Правь статус, ####!111
**************
Group: Металариец
Posts: 6,900
Releases: 0
On Forums: 8 years 3 months
Thanks: 4315 time(s)
Russian Federation


Прошлый был мммм.
Go to the top of the page
  Insert nick Quick quote
+Quote Post
post Apr 28 2018, 09:36:27
Post #3

Пять Литров
*****
Group: Металариец
Posts: 414
Releases: 6
From: Черновцы
On Forums: 15 years 1 month
Thanks: 464 time(s)
Ukraine


А есть ли возможность прошлый залить сюда?


Thanks:
(1) kessler,
Go to the top of the page
  Insert nick Quick quote
+Quote Post
post Apr 29 2018, 14:13:39
Post #4

Правь статус, ####!111
**************
Group: Металариец
Posts: 6,900
Releases: 0
On Forums: 8 years 3 months
Thanks: 4315 time(s)
Russian Federation


ЦИТАТА(lordbathor @ 28th April 2018 - 13:36:27) *
А есть ли возможность прошлый залить сюда?

Register



Thanks:
Go to the top of the page
  Insert nick Quick quote
+Quote Post
post May 10 2018, 21:59:19
Post #5

Правь статус, ####!111
**************
Group: Металариец
Posts: 6,900
Releases: 0
On Forums: 8 years 3 months
Thanks: 4315 time(s)
Russian Federation


предыдущий был атмосферным и приятно затягивающим.
тут наверное они не разобрались что собрались играть.
не очень получилось вобщем.
Go to the top of the page
  Insert nick Quick quote
+Quote Post
post May 29 2019, 08:54:17
Post #6

Девять Литров
*********
Group: Металариец
Posts: 949
Releases: 0
On Forums: 16 years 7 months
Thanks: 462 time(s)
Poland


Великолепный тягучий сладж/дум c наижирнейшим звучанием. Заходит на ура!
P.S. Предыдущий вроде не слышал
Go to the top of the page
  Insert nick Quick quote
+Quote Post
post Oct 20 2019, 15:29:47
Post #7

Black is beautiful
***********
Group: Металариец
Posts: 1,985
Releases: 4
On Forums: 12 years 2 months
Thanks: 445 time(s)
Unknown


Very good !! (IMG:style_emoticons/default/pray.gif)

Register


Thanks:
Go to the top of the page
  Insert nick Quick quote
+Quote Post

Reply to this topicStart new topic
2 User(s) are reading this topic (2 Guests and 0 Anonymous Users)
0 Members:

 



- Lo-Fi Version Support form
Copyrights and abuse reports form
Time is now: 28th May 2024 - 01:54:07