Welcome Guest ( Log In | Register )

Объявления

* gmail.com упорно продолжает считать почту с нас "unsolicited" и отбивает в том числе и письма активации, поэтому просьба использовать альтернативные почтовые ящики.
------------
* gmail.com continues reject all mail from us as "unsolicited" (activation mails too) therefore please use alternate mail servers.
> Dimmu Borgir - Rehearsal 17.01.1994 [demo] (1994), Black Metal
post May 2 2018, 19:37:03
Post #1

Правь статус, ####!111
**************
Group: Металариец
Posts: 2,749
Releases: 2261
From: Praha
On Forums: 10 years 1 month
Thanks: 63818 time(s)
Czech Republic


(IMG:http://metalarea.org/images/audiocovers/2018_May/acov_tid305442_thumb.jpg)

*Artist: Dimmu Borgir
*Album: Rehearsal 17.01.1994 [demo]
*Year: 1994
*Genre: Black Metal
*Country: Norway (IMG:http://metalarea.org/forum/style_images/flags/Norway.png)
*Format: mp3@CBR320kbps
*Size: 57MB

Tracklist:
1. Inn i evighetens mørke 04:44 instrumental
2. Raabjørn speiler draugheimens skodde 05:24
3. Hunnerkongens sorgsvarte ferd over steppene 03:16
4. Stien 02:16 instrumental
5. Den gjemte sannhet 03:37
6. Untitiled 5:29
******************************
Total playing time: 24:46

Extended info
Tape-rip by messer the-metal-collection.blogspot.com


Technical info
(IMG:http://metalarea.org/images/spectrogram/2018_May/3d4f144de67edbbc00853a24a67a2529.png)
Input File: 02. Raabjørn Speiler Draugheimens Skodde.mp3
Channels : 2
Sample Rate : 44100
Precision : 16-bit
Duration : 00:05:24.20 = 14297308 samples = 24315.1 CDDA sectors
File Size : 13.0M
Bit Rate : 320k
Sample Encoding: MPEG audio (layer I, II or III)
Comments :
Title=RaabjГёrn Speiler Draugheimens Skodde
Artist=Dimmu Borgir
Album=Rehearsal January 1994
Tracknumber=02/06
Year=1994
Genre=Black Metal



Register


Go to the top of the page
  Insert nick Quick quote
+Quote Post
 
Start new topic
Replies (1 - 6)
post May 3 2018, 05:55:16
Post #2

Group: Подсевший
Posts: 36
Releases: 0
From: CHILE
On Forums: 8 years 1 month
Thanks: 11 time(s)
Chile


thank!!! great album demo.


(IMG:style_emoticons/default/pray.gif) (IMG:style_emoticons/default/pray.gif) (IMG:style_emoticons/default/pray.gif)


do you have Rehearsal February 1994???

Go to the top of the page
  Insert nick Quick quote
+Quote Post
post May 3 2018, 06:31:23
Post #3

De Mysteriis Dom Sathanas
**************
Group: Металариец
Posts: 4,800
Releases: 64
From: Doom
On Forums: 15 years 10 months
Thanks: 4285 time(s)
Russian Federation


Все творчество бургеров после Devil's Path для меня неинтересно, этот демо в копилку конечно же)
Go to the top of the page
  Insert nick Quick quote
+Quote Post
post May 3 2018, 06:44:58
Post #4

Forever Underground
**************
Group: Металариец
Posts: 12,186
Releases: 0
On Forums: 9 years 1 month
Thanks: 19786 time(s)
Unknown


QUOTE(ji_indur @ May 3 2018, 06:55:16) *
thank!!! great album demo.

do you have Rehearsal February 1994???

Years and years of researches, but nothing found yet (IMG:style_emoticons/default/6.gif) There is only Reh. August '94 (on youtube, also)...
RUSP73 this rehearsal-tape is GOLD, indeed!! (IMG:style_emoticons/default/pray.gif) (IMG:style_emoticons/default/true_black.gif) Thank you so much @Velmi for uploading this in 320!! Now I can delete my poor version @128, eheh... (IMG:style_emoticons/default/9.gif)
EDIT: total playing time: 24:46 (IMG:style_emoticons/default/smile3.gif) [must be added to 19:17 the 6th Untitled track -> 5:29]


Thanks:
(1) RUSP73,
Go to the top of the page
  Insert nick Quick quote
+Quote Post
post Jan 14 2024, 14:48:44
Post #5

Шесть Литров
******
Group: Металариец
Posts: 567
Releases: 23
From: Planet Earth
On Forums: 8 years 8 months
Thanks: 1410 time(s)
Palau


(IMG:style_emoticons/default/hmm.gif)

(IMG:https://www.metal-archives.com/images/2/4/5/1/245155.jpg)
Go to the top of the page
  Insert nick Quick quote
+Quote Post
post Jan 14 2024, 15:15:04
Post #6

Forever Underground
**************
Group: Металариец
Posts: 12,186
Releases: 0
On Forums: 9 years 1 month
Thanks: 19786 time(s)
Unknown


(IMG:style_emoticons/default/look.gif)
(IMG:https://i.postimg.cc/5NnQ8V3S/R-2672679-1603317583-3453.jpg)


Thanks:
(1) yarrsuaa,
Go to the top of the page
  Insert nick Quick quote
+Quote Post
post Jan 16 2024, 19:25:52
Post #7

Шесть Литров
******
Group: Металариец
Posts: 567
Releases: 23
From: Planet Earth
On Forums: 8 years 8 months
Thanks: 1410 time(s)
Palau


^
It appears that 6th untitled track is a very rough version of "For All Tid"


Thanks:
Go to the top of the page
  Insert nick Quick quote
+Quote Post

Reply to this topicStart new topic
1 User(s) are reading this topic (1 Guests and 0 Anonymous Users)
0 Members:

 



- Lo-Fi Version Support form
Copyrights and abuse reports form
Time is now: 28th May 2024 - 18:21:34