Welcome Guest ( Log In | Register )

Объявления

* gmail.com упорно продолжает считать почту с нас "unsolicited" и отбивает в том числе и письма активации, поэтому просьба использовать альтернативные почтовые ящики.
------------
* gmail.com continues reject all mail from us as "unsolicited" (activation mails too) therefore please use alternate mail servers.
 
Reply to this topicStart new topic
> Pulsar Colony - Seven Hollows (2018), Psychedelic/Experimental Black Metal (D6)
post May 8 2018, 10:36:00
Post #1

Serial Uploader
Group Icon
Group: V.I.P
Posts: 42,746
Releases: 40809
From: Lithuania
On Forums: 16 years 1 week
Thanks: 523287 time(s)
Lithuania


(IMG:https://metalarea.org/images/audiocovers/2018_May/acov_tid305669_thumb.jpg)

*Artist: Pulsar Colony
*Album: Seven Hollows
*Year: 2018
*Genre: Psychedelic/Experimental Black Metal
*Country: United States (IMG:https://metalarea.org/forum/style_images/flags/United%20States.png)
*Format: mp3@CBR320kbps
*Size: 163MB

Tracklist:
01. Home (Our Sunless Interior) 12:00
02. Awaiting The Stronger Spirits 12:49
03. Dead Horse Mountain 14:37
04. The Snow Image Of Seven Hollows 13:37
05. Clinging To The Last Spark 18:21
******************************
Total playing time: 1:11:24




Technical info
(IMG:https://metalarea.org/images/spectrogram/2018_May/4f37351969b43ba9c2a50d72233a7f98.png)
Input File: 02. Awaiting the Stronger Spirits.mp3
Channels : 2
Sample Rate : 44100
Precision : 16-bit
Duration : 00:12:49.69 = 33943373 samples = 57726.8 CDDA sectors
File Size : 30.9M
Bit Rate : 321k
Sample Encoding: MPEG audio (layer I, II or III)
Comments :
Title=Awaiting the Stronger Spirits
Artist=Pulsar Colony
Album=Seven Hollows
Tracknumber=2
Year=2018



Register


Go to the top of the page
  Insert nick Quick quote
+Quote Post

Reply to this topicStart new topic
1 User(s) are reading this topic (1 Guests and 0 Anonymous Users)
0 Members:

 



- Lo-Fi Version Support form
Copyrights and abuse reports form
Time is now: 14th June 2024 - 00:45:16