Welcome Guest ( Log In | Register )

> Jacobs Moor - Self (2017), Progressive Power/Thrash Metal
post May 18 2018, 14:15:30
Post #1

Правь статус, ####!111
**************
Group: Металариец
Posts: 27,436
Releases: 19916
From: Г.Харьков
On Forums: 9 years 4 months
Thanks: 401973 time(s)
Unknown


(IMG:https://metalarea.org/images/audiocovers/2018_May/acov_tid306106_thumb.jpg)

*Artist: Jacobs Moor
*Album: Self
*Year: 2017
*Genre: Progressive Power/Thrash Metal
*Country: Austria (IMG:https://metalarea.org/forum/style_images/flags/Austria.png)
*Format: mp3@CBR320kbps
*Size: 132MB

Tracklist:
1. March Of The Flies
2. Watching Atrocities
3. The Absence Of Me
4. Self
5. Falling To Pieces
6. Distance
7. Neglacting The Path Of The Sun
8. Delusion
9. Hate Of A New Kind
10. Hopeless Endeavour
******************************
Total playing time: 57:41

(IMG:https://metalarea.org/images/youtube.png)


Extended info


Technical info
(IMG:https://metalarea.org/images/spectrogram/2018_May/0fbdd9199a5850964d8e302e5244f4ed.png)
Input File: 02 - Watching Atrocities.mp3
Channels : 2
Sample Rate : 44100
Precision : 16-bit
Duration : 00:05:39.44 = 14969304 samples = 25458 CDDA sectors
File Size : 13.7M
Bit Rate : 322k
Sample Encoding: MPEG audio (layer I, II or III)
Comments :
Title=Watching Atrocities
Artist=Jacobs Moor
Album=Self
Tracknumber=2/10
Year=2017



Register


Go to the top of the page
  Insert nick Quick quote
+Quote Post
 
Start new topic
Replies (1 - 2)
post May 19 2018, 07:04:28
Post #2

MDM-Thrash Metal
**************
Group: Металариец
Posts: 10,591
Releases: 1320
From: Одесса
On Forums: 14 years 1 month
Thanks: 31877 time(s)
Ukraine


Register


Go to the top of the page
  Insert nick Quick quote
+Quote Post
post Jul 22 2021, 16:49:45
Post #3

Четыре Литра
****
Group: Металариец
Posts: 330
Releases: 0
From: Russian Federation
On Forums: 15 years 4 weeks
Thanks: 43 time(s)
Russian Federation


from the web:
Register


Thanks:
(1) wreak,
Go to the top of the page
  Insert nick Quick quote
+Quote Post

Reply to this topicStart new topic
1 User(s) are reading this topic (1 Guests and 0 Anonymous Users)
0 Members:

 



- Lo-Fi Version Support form
Copyrights and abuse reports form
Time is now: 25th September 2021 - 22:56:41