Welcome Guest ( Log In | Register )

> Spiral Skies - Blues For A Dying Planet (2018), Psychedelic Doom Metal/Rock
post May 18 2018, 15:14:32
Post #1

Правь статус, ####!111
**************
Group: Металариец
Posts: 4,164
Releases: 3817
From: Одесса
On Forums: 13 years 1 month
Thanks: 41772 time(s)
Ukraine


(IMG:http://metalarea.org/images/audiocovers/2018_May/acov_tid306112_thumb.jpg)

*Artist: Spiral Skies
*Album: Blues For A Dying Planet
*Year: 2018
*Genre: Psychedelic Doom Metal/Rock
*Country: Sweden (IMG:http://metalarea.org/forum/style_images/flags/Sweden.png)
*Format: mp3@CBR320kbps
*Size: 85MB

Tracklist:
1. Black Hole Waltz 01:26
2. Awakening 03:31
3. Dark Side of the Cross 04:05
4. The Wizard's Ball 05:37
5. Danse Macabre 04:18
6. Labyrinth of the Mind 05:43
7. Shattered Hopes 03:18
8. Left Is Right and Right Is Left Behind 04:38
9. The Prisoner 06:03
******************************
Total playing time: 38:39



Extended info
Line - up:

Eric - Bass
Daniel - Drums
Jonas - Guitars
Dan - Guitars
Frida - Vocals (ex-Lapis Lazuli)

(IMG:https://www.metal-archives.com/images/3/5/4/0/3540399507_photo.jpg?5927)


Technical info
(IMG:http://metalarea.org/images/spectrogram/2018_May/3f82e5e3919007f644cb03aa5d83855f.png)
Input File: 09 The Prisoner.mp3
Channels : 2
Sample Rate : 44100
Precision : 16-bit
Duration : 00:06:03.01 = 16008653 samples = 27225.6 CDDA sectors
File Size : 14.5M
Bit Rate : 320k
Sample Encoding: MPEG audio (layer I, II or III)
Comments :
Title=The Prisoner
Artist=Spiral Skies
Album=Blues For A Dying Planet
Tracknumber=09
Year=2018
Genre=Psychedelic Doom Metal / Rock



Register


Go to the top of the page
  Insert nick Quick quote
+Quote Post
 
Start new topic
Replies (1 - 3)
post Jun 22 2018, 08:22:12
Post #2

South Of Heaven /адепт ВУДУ
**************
Group: Металариец
Posts: 13,960
Releases: 9
On Forums: 11 years 3 months
Thanks: 5563 time(s)
Unknown


По ходу здесь вокалистка получше слушается, нежели в других её группах.
Go to the top of the page
  Insert nick Quick quote
+Quote Post
post Dec 19 2019, 21:07:38
Post #3

Литр
*
Group: Подсевший
Posts: 88
Releases: 0
From: Colombia
On Forums: 8 years 5 months
Thanks: 9 time(s)
Colombia


reupload it please!
Go to the top of the page
  Insert nick Quick quote
+Quote Post
post Dec 26 2019, 21:47:14
Post #4

ME[ta]LLOMAN
**************
Group: Металариец
Posts: 5,010
Releases: 3
From: Avdeyevka
On Forums: 15 years 3 months
Thanks: 2060 time(s)
Honduras


ЦИТАТА(helvetestoner @ Dec 19 2019, 20:07:38) *
reupload it please!

Register


Thanks:
(1) Jurmagund,
Go to the top of the page
  Insert nick Quick quote
+Quote Post

Reply to this topicStart new topic
2 User(s) are reading this topic (2 Guests and 0 Anonymous Users)
0 Members:

 



- Lo-Fi Version Support form
Copyrights and abuse reports form
Time is now: 1st August 2021 - 12:01:22