Welcome Guest ( Log In | Register )

> Hallig - A Distant Reflection Of The Void (2018), Black Metal
post May 20 2018, 02:28:37
Post #1

Serial Uploader
Group Icon
Group: V.I.P
Posts: 39,568
Releases: 37692
From: Lithuania
On Forums: 14 years 8 months
Thanks: 474351 time(s)
Lithuania


(IMG:http://metalarea.org/images/audiocovers/2018_May/acov_tid306173_thumb.jpg)

*Artist: Hallig
*Album: A Distant Reflection Of The Void
*Year: 2018
*Genre: Black Metal
*Country: Germany (IMG:http://metalarea.org/forum/style_images/flags/Germany.png)
*Format: mp3@CBR320kbps
*Size: 143MB

Tracklist:
01. A Dawn beneath Titanium Clouds
02. Neues Land
03. Trümmer
04. Straight to the Ninth
05. To Walk with Giants
06. Im Aufwärtsfall
07. Into Infinity
08. From Ashes All Blooms
09. The Starless Dark
10. A Distant Reflection of the Void
******************************
Total playing time: 1:02:26




Technical info
(IMG:http://metalarea.org/images/spectrogram/2018_May/50f64b90d5200505a45142a48a134b08.png)
Input File: 02. Neues Land.mp3
Channels : 2
Sample Rate : 44100
Precision : 16-bit
Duration : 00:04:18.17 = 11385253 samples = 19362.7 CDDA sectors
File Size : 10.3M
Bit Rate : 320k
Sample Encoding: MPEG audio (layer I, II or III)
Comments :
Title=Neues Land
Artist=Hallig
Album=A Distant Reflection of the Void
Tracknumber=2/10
Year=2018



Register


Go to the top of the page
  Insert nick Quick quote
+Quote Post
 
Start new topic
Replies (1 - 4)
post May 20 2018, 14:37:59
Post #2

Правь статус, ####!111
**************
Group: Металариец
Posts: 31,449
Releases: 23190
From: Г.Харьков
On Forums: 10 years 9 months
Thanks: 488244 time(s)
Ukraine


Register


Go to the top of the page
  Insert nick Quick quote
+Quote Post
post May 22 2018, 10:30:40
Post #3

Common dweller of hell
**************
Group: Металариец
Posts: 4,598
Releases: 12
From: Dnipro
On Forums: 14 years 6 months
Thanks: 1830 time(s)
Ukraine


Это интересно, нужно вникать. Правда один из вокалов очень противнючий.
Go to the top of the page
  Insert nick Quick quote
+Quote Post
post Sep 20 2022, 07:29:28
Post #4

Мегаманьяк
***********
Group: Металариец
Posts: 1,623
Releases: 10
On Forums: 14 years 1 month
Thanks: 175 time(s)
Germany


Please, re-upload.
Go to the top of the page
  Insert nick Quick quote
+Quote Post
post Sep 20 2022, 12:16:49
Post #5

Правь статус, ####!111
**************
Group: Металариец
Posts: 5,734
Releases: 0
On Forums: 4 years 7 months
Thanks: 17290 time(s)
Russian Federation


147 mb/320 kbps
Register


Go to the top of the page
  Insert nick Quick quote
+Quote Post

Reply to this topicStart new topic
2 User(s) are reading this topic (2 Guests and 0 Anonymous Users)
0 Members:

 



- Lo-Fi Version Support form
Copyrights and abuse reports form
Time is now: 8th February 2023 - 18:30:09