Welcome Guest ( Log In | Register )

> 夢遊病者 - 5772 (2017), Experimental Black Metal
post May 21 2018, 19:46:33
Post #1

Правь статус, 616
**************
Group: Металариец
Posts: 8,590
Releases: 6859
From: 55°35’N 38°08’E
On Forums: 14 years 7 months
Thanks: 123926 time(s)
Russian Federation


(IMG:http://metalarea.org/images/audiocovers/2018_May/acov_tid306233_thumb.jpg)

*Artist: 夢遊病者
*Album: 5772
*Year: 2017
*Genre: Experimental Black Metal
*Country: Japan (IMG:http://metalarea.org/forum/style_images/flags/Japan.png)
*Format: mp3@CBR320kbps
*Size: 50MB

Tracklist:
1.Empty Urns 02:47
2.White Linen 04:20
3.Plain Wood 03:11
4.Black Ribbon 03:46
5.No Flowers 04:44
6.Only Stones 02:56
******************************
Total playing time: 21:44



Technical info
(IMG:http://metalarea.org/images/spectrogram/2018_May/3c32d17f3ea0555e8f661c8da51a2382.png)
Input File: 01 Empty Urns.mp3
Channels : 2
Sample Rate : 44100
Precision : 16-bit
Duration : 00:02:47.59 = 7390895 samples = 12569.5 CDDA sectors
File Size : 6.80M
Bit Rate : 325k
Sample Encoding: MPEG audio (layer I, II or III)
Comments :
Title=Empty Urns
Artist=е¤ўйЃЉз—…иЂ…
Album=5772
Tracknumber=1
Year=2017
Genre=Black Metal



Register


Go to the top of the page
  Insert nick Quick quote
+Quote Post
 
Start new topic
Replies (1 - 1)
post May 27 2018, 20:43:55
Post #2

Шесть Литров
******
Group: Металариец
Posts: 575
Releases: 2
From: Санкт-Петербург
On Forums: 15 years 3 months
Thanks: 181 time(s)
Russian Federation


The country is not Japan!
The members hail from Osaka, Tver and New York.




Thanks:
(1) Leolomb,
Go to the top of the page
  Insert nick Quick quote
+Quote Post

Reply to this topicStart new topic
2 User(s) are reading this topic (2 Guests and 0 Anonymous Users)
0 Members:

 



- Lo-Fi Version Support form
Copyrights and abuse reports form
Time is now: 9th February 2023 - 12:36:21