Welcome Guest ( Log In | Register )

Объявления

* gmail.com упорно продолжает считать почту с нас "unsolicited" и отбивает в том числе и письма активации, поэтому просьба использовать альтернативные почтовые ящики.
------------
* gmail.com continues reject all mail from us as "unsolicited" (activation mails too) therefore please use alternate mail servers.
> Maestrick - Expresso Della Vita: Solare (2018), Progressive/Power Metal
post May 22 2018, 16:36:42
Post #1

Правь статус, ####!111
**************
Group: Металариец
Posts: 35,666
Releases: 26550
From: Г.Харьков
On Forums: 11 years 11 months
Thanks: 574125 time(s)
Ukraine


(IMG:https://metalarea.org/images/audiocovers/2018_May/acov_tid306250_thumb.jpg)

*Artist: Maestrick
*Album: Expresso Della Vita: Solare
*Year: 2018
*Genre: Progressive/Power Metal
*Country: Brazil (IMG:https://metalarea.org/forum/style_images/flags/Brazil.png)
*Format: mp3@CBR320kbps
*Size: 185MB

Tracklist:
01. Origami
02. I A.M. Living
03. Rooster Race
04. Daily View
05. Water Birds
06. Keep Trying
07. The Seed
08. Far West
09. Across The River
10. Penit?ncia
11. Hijos De La Tierra
12. Trainsition
******************************
Total playing time: 1:19:29



Extended info
Neemias Teixeira Keyboards
Renato Somera Bass
Heitor Matos Drums
Fábio Caldeira Vocals, Piano


Technical info
(IMG:https://metalarea.org/images/spectrogram/2018_May/66dd316935c588c70cdfbb86163a4a57.png)
Input File: 03. Rooster Race.mp3
Channels : 2
Sample Rate : 44100
Precision : 16-bit
Duration : 00:06:11.03 = 16362335 samples = 27827.1 CDDA sectors
File Size : 15.2M
Bit Rate : 327k
Sample Encoding: MPEG audio (layer I, II or III)
Comments :
Title=Rooster Race
Artist=Maestrick
Album=Espresso Della Vita: Sorale
Tracknumber=3/12
Year=2018
Discnumber=1/1



Register


Go to the top of the page
  Insert nick Quick quote
+Quote Post
 
Start new topic
Replies (1 - 3)
post May 23 2018, 09:32:02
Post #2

Правь статус, ####!111
**************
Group: Металариец
Posts: 35,666
Releases: 26550
From: Г.Харьков
On Forums: 11 years 11 months
Thanks: 574125 time(s)
Ukraine


Register


Thanks:
Go to the top of the page
  Insert nick Quick quote
+Quote Post
post Jun 22 2018, 17:19:10
Post #3

Glorious Imperator
**********
Group: Металариец
Posts: 1,104
Releases: 0
From: Sweden
On Forums: 15 years 1 month
Thanks: 62 time(s)
Sweden


Thank you.
Go to the top of the page
  Insert nick Quick quote
+Quote Post
post May 2 2020, 04:16:09
Post #4

Group: Дух
Posts: 2
Releases: 0
From: Brazil
On Forums: 3 years 11 months
Thanks: 0 time(s)
Brazil


Great band from Brazil. Love their work.

A new album is currently in progress.



More links about them:
Official Website: https://maestrickofficial.com/
Bandcamp:
Facebook:
Instagram: https://www.instagram.com/maestrickofficial/
YouTube: https://www.youtube.com/channel/UCYEjsiF075...66lI_w/featured
Twitter: https://twitter.com/maestrick
Go to the top of the page
  Insert nick Quick quote
+Quote Post

Reply to this topicStart new topic
1 User(s) are reading this topic (1 Guests and 0 Anonymous Users)
0 Members:

 



- Lo-Fi Version Support form
Copyrights and abuse reports form
Time is now: 25th April 2024 - 16:13:50