Welcome Guest ( Log In | Register )

> Thunderwar - Wolfpack [ep] (2018), Epic Death Metal
post May 24 2018, 15:48:29
Post #1

Serial Uploader
Group Icon
Group: V.I.P
Posts: 37,608
Releases: 35780
From: Lithuania
On Forums: 13 years 1 month
Thanks: 433148 time(s)
Lithuania


(IMG:https://metalarea.org/images/audiocovers/2018_May/acov_tid306347_thumb.jpg)

*Artist: Thunderwar
*Album: Wolfpack [ep]
*Year: 2018
*Genre: Epic Death Metal
*Country: Poland (IMG:https://metalarea.org/forum/style_images/flags/Poland.png)
*Format: mp3@CBR320kbps
*Size: 51MB

Tracklist:
01. Wolfpack
02. Woodland Spirit
03. Circle Of Runes
04. Thunderer
05. The Winds They Called The Dungeon Shaker (Darkthrone Cover)
******************************
Total playing time: 22:32



Technical info
(IMG:https://metalarea.org/images/spectrogram/2018_May/6904e8ceb3e5ac72407c3582d55bf534.png)
Input File: 02. Woodland Spirit.mp3
Channels : 2
Sample Rate : 44100
Precision : 16-bit
Duration : 00:03:48.10 = 10059166 samples = 17107.4 CDDA sectors
File Size : 9.18M
Bit Rate : 322k
Sample Encoding: MPEG audio (layer I, II or III)
Comments :
Title=Woodland Spirit
Artist=Thunderwar
Album=Wolfpack
Tracknumber=2/5
Year=2018
Genre=9
Discnumber=1/1



Register


Go to the top of the page
  Insert nick Quick quote
+Quote Post
 
Start new topic
Replies (1 - 3)
post May 25 2018, 19:31:08
Post #2

ME[ta]LLOMAN
**************
Group: Металариец
Posts: 5,009
Releases: 3
From: Avdeyevka
On Forums: 15 years 3 months
Thanks: 2060 time(s)
Honduras





Thanks:
Go to the top of the page
  Insert nick Quick quote
+Quote Post
post May 25 2018, 19:39:52
Post #3

И Ван Дамм По Делам Вашим!
**************
Group: Металариец
Posts: 20,024
Releases: 26
On Forums: 13 years 3 weeks
Thanks: 11296 time(s)
Honduras


А мне понравилось превью.
Go to the top of the page
  Insert nick Quick quote
+Quote Post
post Dec 7 2020, 10:09:40
Post #4

Group Icon
Group: S-moderation team
Posts: 21,461
Releases: 1443
From: Zagreb
On Forums: 10 years 4 months
Thanks: 99537 time(s)
Croatia


Register


Thanks:
Go to the top of the page
  Insert nick Quick quote
+Quote Post

Reply to this topicStart new topic
2 User(s) are reading this topic (2 Guests and 0 Anonymous Users)
0 Members:

 



- Lo-Fi Version Support form
Copyrights and abuse reports form
Time is now: 24th July 2021 - 09:20:22