Welcome Guest ( Log In | Register )

> Tomb Mold - Manor Of Infinite Forms (2018), Old School Death Metal
post Jun 6 2018, 18:30:51
Post #1

Правь статус, ####!111
**************
Group: Металариец
Posts: 19,812
Releases: 13428
From: Г.Харьков
On Forums: 7 years 7 months
Thanks: 232502 time(s)
Unknown


(IMG:https://metalarea.org/images/audiocovers/2018_Jun/acov_tid306834_thumb.jpg)

*Artist: Tomb Mold
*Album: Manor Of Infinite Forms
*Year: 2018
*Genre: Old School Death Metal
*Country: Canada (IMG:https://metalarea.org/forum/style_images/flags/Canada.png)
*Format: mp3@CBR320kbps
*Size: 101MB

Tracklist:
1. Manor Of Infinite Forms 04:53
2. Blood Mirror 07:19
3. Abysswalker 04:21
4. Final Struggle Of Selves 05:04
5. Gored Embrace (Confronting Biodegradation) 05:42
6. Chamber Of Sacred Ootheca 05:37
7. Two Worlds Become One 07:59
******************************
Total playing time: 40:55

Preview 1

Technical info
(IMG:https://metalarea.org/images/spectrogram/2018_Jun/55d1133df860ac1f7db5ebb48f07dcdf.png)
Input File: 03 Abysswalker.mp3
Channels : 2
Sample Rate : 48000
Precision : 16-bit
Duration : 00:04:21.92 = 12571920 samples ~ 19643.6 CDDA sectors
File Size : 11.1M
Bit Rate : 340k
Sample Encoding: MPEG audio (layer I, II or III)
Comments :
Title=Abysswalker
Artist=Tomb Mold
Album=Manor Of Infinite Forms
Tracknumber=3
Year=2018
Genre=Death Metal



Register


Go to the top of the page
  Insert nick Quick quote
+Quote Post
 
Start new topic
Replies (1 - 9)
post Jun 6 2018, 19:26:21
Post #2

Правь статус, ####!111
**************
Group: Металариец
Posts: 19,812
Releases: 13428
From: Г.Харьков
On Forums: 7 years 7 months
Thanks: 232502 time(s)
Unknown


Register


Go to the top of the page
  Insert nick Quick quote
+Quote Post
post Jun 6 2018, 20:33:10
Post #3
BAN
Banned till
Apr 13 2037, 19:35:56



Maxим Klebanoв дает жару . Прошлый понравился необычным звучанием (IMG:style_emoticons/default/25.gif) ..


Go to the top of the page
  Insert nick Quick quote
+Quote Post
post Jun 6 2018, 20:59:17
Post #4

Crush The Enemies
**************
Group: Металариец
Posts: 4,259
Releases: 0
From: Moscow
On Forums: 10 years 3 months
Thanks: 2496 time(s)
Russian Federation



Логическое продолжение предыдущего полноформата,но с улучшенным саундом и мастерингом! (IMG:style_emoticons/default/dwarf-1.gif)


Go to the top of the page
  Insert nick Quick quote
+Quote Post
post Jun 6 2018, 21:23:22
Post #5

кручу наждак
**************
Group: Металариец
Posts: 4,150
Releases: 98
From: Самара
On Forums: 9 years 6 months
Thanks: 3211 time(s)
Russian Federation


хз, на любителя, как и прошлый...
Go to the top of the page
  Insert nick Quick quote
+Quote Post
post Jun 9 2018, 08:21:51
Post #6

Правь статус, ####!111
**************
Group: Металариец
Posts: 44,517
Releases: 688
On Forums: 10 years 6 months
Thanks: 35845 time(s)
Russian Federation


Обложка - загляденье (IMG:style_emoticons/default/spitggis0.gif)


Thanks:
(1) Chasm,
Go to the top of the page
  Insert nick Quick quote
+Quote Post
post Jul 25 2018, 10:39:14
Post #7

Мегаманьяк
***********
Group: Металариец
Posts: 1,760
Releases: 0
From: Харьков
On Forums: 10 years 2 months
Thanks: 738 time(s)
Ukraine


Хорошо сделанный, но ничем непримечательный классический дэт-метал, ничего особенного. Продукт чисто для ностальгирующих фанов (я не в их числе).
Go to the top of the page
  Insert nick Quick quote
+Quote Post
post Nov 22 2018, 09:06:53
Post #8

Самый Тихий Час
**************
Group: Металариец
Posts: 5,817
Releases: 0
On Forums: 10 years 4 weeks
Thanks: 2632 time(s)
Unknown


Под настроение и чего то не хватает для полного бананаса.
Go to the top of the page
  Insert nick Quick quote
+Quote Post
post Jan 5 2019, 23:10:56
Post #9

Правь статус, ####!111
**************
Group: Металариец
Posts: 44,517
Releases: 688
On Forums: 10 years 6 months
Thanks: 35845 time(s)
Russian Federation


Обещают новый релиз в этом году:

Go to the top of the page
  Insert nick Quick quote
+Quote Post
post Jan 5 2019, 23:52:46
Post #10

Правь статус, ####!111
**************
Group: Металариец
Posts: 4,292
Releases: 0
From: Одесса
On Forums: 11 years 9 months
Thanks: 2556 time(s)
Unknown


QUOTE(vosmidesijatye @ Jan 5 2019, 23:10:56) *
Обещают новый релиз в этом году:


yeah (IMG:style_emoticons/default/9.gif)
Go to the top of the page
  Insert nick Quick quote
+Quote Post

Reply to this topicStart new topic
1 User(s) are reading this topic (1 Guests and 0 Anonymous Users)
0 Members:

 



- Lo-Fi Version Support form
Copyrights and abuse reports form
Time is now: 10th December 2019 - 16:44:15