Welcome Guest ( Log In | Register )

> Forum rules / Правила раздела

Here go releases which can't go to New releases forums due lack of information, stolen links or incorrect data and just founded in other sites links with minimum info. Reissue of this releases through Add release form with added/corrected data, info and own links highly welcomed.

Сюда уходят релизы, не пропущенные в основные релизные форумы по причинам отсутствия, недостаточности или неверности/некорректности сопровождающей информации, содержащие ссылки, указывающие на файлы, залитые не автором темы, а так же просто найденные где-то ссылки с минимумом информации. Переоформление тем отсюда через форму Добавления релиза с перезаливкой ссылок крайне приветствуется.

 
Reply to this topicStart new topic
> Utumno - Live In Sweden 1991 [live] (2014), Death Metal (D7)
post Jun 13 2018, 13:40:46
Post #1

Два Литра
**
Group: Завсегдатай
Posts: 141
Releases: 90
On Forums: 12 years 3 days
Thanks: 1533 time(s)
Unknown


(IMG:https://metalarea.org/images/audiocovers/2018_Jun/acov_tid307090_thumb.jpg)

*Artist: Utumno
*Album: Live In Sweden 1991 [live]
*Year: 2014
*Genre: Death Metal
*Country: Sweden (IMG:https://metalarea.org/forum/style_images/flags/Sweden.png)
*Format: mp3@CBR320kbps
*Size: 38MB

Tracklist:
1. The Light of Day
2. Saviour Reborn
3. Countess Bathory (Venom cover)
4. In Misery I Dwell
******************************
Total playing time: 16:10


 ! 

fix download link
 


Extended info
Vinyl RIP Mp3@320Kbps, Nagaoka MP-100 cartridge.


Technical info
(IMG:https://metalarea.org/images/spectrogram/2018_Jun/72e92a9506bea97e244b52ebb4c841e6.png)
Input File: 03 - Utumno - Countess Bathory (Venom Cover).mp3
Channels : 2
Sample Rate : 44100
Precision : 16-bit
Duration : 00:03:08.58 = 8316378 samples = 14143.5 CDDA sectors
File Size : 7.54M
Bit Rate : 320k
Sample Encoding: MPEG audio (layer I, II or III)
Comments :
Title=Countess Bathory (Venom Cover)
Artist=Utumno
Album=Live in Sweden 1991
Tracknumber=3
Year=2014
Genre=22



Register


This post has been edited by Borderline1991: Jun 13 2018, 17:20:08


Thanks:
(1) soulflesh,
Go to the top of the page
  Insert nick Quick quote
+Quote Post
post May 18 2021, 02:37:29
Post #2

Правь статус, ####!111
**************
Group: Металариец
Posts: 2,326
Releases: 1
From: ecuador
On Forums: 13 years 2 months
Thanks: 1986 time(s)
Ecuador


Register


Thanks:
Go to the top of the page
  Insert nick Quick quote
+Quote Post
post May 21 2021, 08:55:12
Post #3

Forever Underground
**************
Group: Металариец
Posts: 8,908
Releases: 0
On Forums: 6 years 6 months
Thanks: 12448 time(s)
Unknown


Recorded live on 21 May 1991 at Bryggis, Västerås, Sweden.
(IMG:style_emoticons/default/metaler.gif) https://www.discogs.com/Utumno-Live-In-Swed...release/5491358
Go to the top of the page
  Insert nick Quick quote
+Quote Post
post Jun 24 2021, 09:44:58
Post #4

Forever Underground
**************
Group: Металариец
Posts: 8,908
Releases: 0
On Forums: 6 years 6 months
Thanks: 12448 time(s)
Unknown


Reuploaded for now
Register

EDIT (22/7/2021) - new links HERE:
Utumno - Live In Sweden 1991 [live] (2014) [post #2600285]


Go to the top of the page
  Insert nick Quick quote
+Quote Post
post Jun 24 2021, 21:09:39
Post #5

Правь статус, ####!111
**************
Group: Металариец
Posts: 3,531
Releases: 0
From: UK
On Forums: 5 years 3 months
Thanks: 565 time(s)
United Kingdom


Thanks
thenecromancer (IMG:style_emoticons/default/9.gif)


Thanks:
Go to the top of the page
  Insert nick Quick quote
+Quote Post
post Jul 22 2021, 15:24:17
Post #6

Маньяк
**********
Group: Металариец
Posts: 1,120
Releases: 15
On Forums: 12 years 9 months
Thanks: 1936 time(s)
Ukraine


please reup
Go to the top of the page
  Insert nick Quick quote
+Quote Post
post Jul 22 2021, 17:56:46
Post #7

Forever Underground
**************
Group: Металариец
Posts: 8,908
Releases: 0
On Forums: 6 years 6 months
Thanks: 12448 time(s)
Unknown


Register

Register


Thanks:
Go to the top of the page
  Insert nick Quick quote
+Quote Post

Reply to this topicStart new topic
1 User(s) are reading this topic (1 Guests and 0 Anonymous Users)
0 Members:

 



- Lo-Fi Version Support form
Copyrights and abuse reports form
Time is now: 21st October 2021 - 22:16:22