Welcome Guest ( Log In | Register )

> Runespell - Order Of Vengeance (2018), Black Metal
post Jul 2 2018, 20:11:20
Post #1

Trickster
Group Icon
Group: V.I.P
Posts: 6,352
Releases: 322
On Forums: 13 years 3 weeks
Thanks: 15145 time(s)
Russian Federation


(IMG:https://metalarea.org/images/audiocovers/2018_Jul/acov_tid307780_thumb.jpg)

*Artist: Runespell
*Album: Order Of Vengeance
*Year: 2018
*Genre: Black Metal
*Country: Australia (IMG:https://metalarea.org/forum/style_images/flags/Australia.png)
*Format: mp3@CBR320kbps
*Size: 131MB

Tracklist:
1. Retribution in Iron 09:57
2. Destiny Over Discord 07:48
3. Claws of Fate 06:31
4. Night's Gate 04:26
5. Wolf.Axis 07:29
6. Blood Martyr 05:40
7. Pray for Redemption - Redemption for Prey 05:01
******************************
Total playing time: 46:52



Extended info
Promo stuff

IRON BONEHEAD PRODUCTIONS is proud to present RUNESPELL's highly anticipated second album, Order of Vengeance, on CD and vinyl LP formats.

Striking while the iron's hot, Order of Vengeance follows less than a year after RUNESPELL's critically acclaimed debut album, Unhallowed Blood Oath, also released by IRON BONEHEAD. Let it be known, however, that there's not one sacrifice in quality to be found here. If anything, the RUNESPELL aesthetic has become even more iron-girded and iron-willed. There's a greater sense of urgency on Order of Vengeance - an unquenchable desperation, even - that drives these no-less-grand epics. Whereas Unhallowed Blood Oath situated itself on an axis of melancholy vs. bloodlust, suitably, Order of Vengeance ups the bloodlust considerably...although, of course, the melancholy is no short supply here, particularly on the sparse 'n' haunting instrumental "Night's Gate." The album length, too, has been padded out to a spacious and all-enveloping 47 minutes, allowing the full mesmerizing grandeur of the RUNEPSPELL aesthetic to take root and consume. More massive, yet more urgent: Order of Vengeance is indeed a new order.

Elsewhere, underpinning everything is an authentic and austere steeping in early '90s black metal classicism. Be it from Scandinavia or France or particularly Poland, such source material has been so widely replicated year after year, and yet RUNESPELL is yet again able to both handily challenge those classics AND resound like an era-relevant relic. It's not surprising, considering mainman Nightwolf is one of the busiest men in the shit-hot Australian black metal scene, maintaining as he does the equally prolific Eternum and Blood Stronghold. While still bearing aesthetic similarities to those two bands - this is the purest, most mystical black metal after all - with Order of Vengeance, RUNESPELL continues its majestic rumination on the mysteries of war and bloodshed, vengeance and valor, memory and destiny. Dedication and sacrifice - spiritually, above all, as well as physically - are once again the watchwords, and they've resulted in black metal wielded as weapon, totem, and portal simultaneously.


To coincide with RUNESPELL's upward-and-onward trajectory with Order of Vengeance, the band's sold-out debut demo, Aeons of Ancient Blood, will see a vinyl LP release via IRON BONEHEAD. Partake in these profound truths...


Technical info
(IMG:https://metalarea.org/images/spectrogram/2018_Jul/d831a6a0f00385421b2adf4a87d1ae0a.png)
Input File: 04 Night\'s Gate.mp3
Channels : 2
Sample Rate : 44100
Precision : 16-bit
Duration : 00:04:25.68 = 11716620 samples = 19926.2 CDDA sectors
File Size : 13.8M
Bit Rate : 416k
Sample Encoding: MPEG audio (layer I, II or III)
Comments :
Title=04 Night's Gate
Artist=Runespell
Album=Order of Vengeance LP/CD
Tracknumber=4



Register


Go to the top of the page
  Insert nick Quick quote
+Quote Post
 
Start new topic
Replies (1 - 8)
post Jul 3 2018, 14:10:16
Post #2

Ёлд ХеллоВяйне
Group Icon
Group: V.I.P
Posts: 34,718
Releases: 143
From: Питер
On Forums: 17 years 4 months
Thanks: 21908 time(s)
Russian Federation


А звук на БК соответсвует альбомному? Потому что там просто (IMG:style_emoticons/default/normal_Homerdisgust3s.png)
Go to the top of the page
  Insert nick Quick quote
+Quote Post
post Jul 3 2018, 14:13:47
Post #3

Trickster
Group Icon
Group: V.I.P
Posts: 6,352
Releases: 322
On Forums: 13 years 3 weeks
Thanks: 15145 time(s)
Russian Federation


Old Vyaine, Не знаю, мне звук понравился. По крайней мере на моем промо-ките что был. С удовольствием разжился бы losless, конечно, но пока денег нема.
Go to the top of the page
  Insert nick Quick quote
+Quote Post
post Jul 3 2018, 18:49:09
Post #4

brutalcesar
**************
Group: Металариец
Posts: 18,774
Releases: 77
From: Рязань
On Forums: 15 years 1 month
Thanks: 11205 time(s)
Russian Federation


Такое ощущение, что басс и бочку писали в соседней комнате (IMG:style_emoticons/default/crazy.gif) Настолько задрапировано они звучат. Это давит на слух. Но, хотя, в Night's Gate гитара просто звенит на фоне глухой атмосферы, есть в этом перец, есть.
Go to the top of the page
  Insert nick Quick quote
+Quote Post
post Jul 3 2018, 19:00:16
Post #5

Правь статус, ####!111
**************
Group: Металариец
Posts: 7,371
Releases: 0
On Forums: 16 years 1 day
Thanks: 14173 time(s)
Sudan


anal porridge


Thanks:
Go to the top of the page
  Insert nick Quick quote
+Quote Post
post Jul 6 2018, 06:39:40
Post #6

Crush! Kill! Destroy!
**************
Group: Металариец
Posts: 5,785
Releases: 15
From: Kaliningrad
On Forums: 16 years 3 months
Thanks: 5459 time(s)
Russian Federation


Они вроде и на первом так звучали. Кстати тоже народ бьется в конвульсиях по этому коллективу, эдакий аналог PC / MoX, только у Патрика (IMG:style_emoticons/default/25.gif)
Go to the top of the page
  Insert nick Quick quote
+Quote Post
post May 26 2020, 07:38:17
Post #7

Black is beautiful
***********
Group: Металариец
Posts: 1,975
Releases: 4
On Forums: 12 years 2 days
Thanks: 442 time(s)
Unknown


Good! (IMG:style_emoticons/default/true_black.gif)


Thanks:
(1) Storky,
Go to the top of the page
  Insert nick Quick quote
+Quote Post
post May 17 2021, 08:51:32
Post #8

Четыре Литра
****
Group: Металариец
Posts: 304
Releases: 0
On Forums: 4 years 5 months
Thanks: 76 time(s)
United States


Someone reup please? Dead links
Go to the top of the page
  Insert nick Quick quote
+Quote Post
post May 17 2021, 09:14:34
Post #9

Правь статус, ####!111
**************
Group: Металариец
Posts: 6,135
Releases: 0
On Forums: 5 years 8 months
Thanks: 19601 time(s)
Russian Federation


131 mb/320 kbps
Register


Go to the top of the page
  Insert nick Quick quote
+Quote Post

Reply to this topicStart new topic
2 User(s) are reading this topic (2 Guests and 0 Anonymous Users)
0 Members:

 



- Lo-Fi Version Support form
Copyrights and abuse reports form
Time is now: 3rd March 2024 - 00:19:17