Welcome Guest ( Log In | Register )

Объявления

* gmail.com упорно продолжает считать почту с нас "unsolicited" и отбивает в том числе и письма активации, поэтому просьба использовать альтернативные почтовые ящики.
------------
* gmail.com continues reject all mail from us as "unsolicited" (activation mails too) therefore please use alternate mail servers.
> Cultist - Chants Of Sublimation [ep] (2018), Black Metal
post Jul 3 2018, 00:07:50
Post #1

Правь статус, ####!111
**************
Group: Металариец
Posts: 5,173
Releases: 1568
From: Brazil
On Forums: 12 years 3 months
Thanks: 64196 time(s)
Brazil


(IMG:https://metalarea.org/images/audiocovers/2018_Jul/acov_tid307787_thumb.jpg)

*Artist: Cultist
*Album: Chants Of Sublimation [ep]
*Year: 2018
*Genre: Black Metal
*Country: Norway (IMG:https://metalarea.org/forum/style_images/flags/Norway.png)
*Format: mp3@CBR320kbps
*Size: 52MB

Tracklist:
1 Chant of Legion of Nothing 5:41
2 Chant of the oldest SIn 3:45
3 Chant of He, Forever 5:13
4 Chant of the Unspoken Name 3:51
5 Chant of the Anti-Cosmic Immolation 3:47
******************************
Total playing time: 22:17

(IMG:https://metalarea.org/images/youtube.png)

Extended info
CULTIST, Chants of Sublimation, debut EP for the new Italian/Norwegian project, with members of Dauden, Fides Inversa, Deathrow, Urarv, Darvaza.

Morbid Chapel Records.
Released on CD in colaboration with Nigredo Records.


Technical info
(IMG:https://metalarea.org/images/spectrogram/2018_Jul/b472a0e4c70e4c62b05b361e10c371bc.png)
Input File: 02 Chant of the oldest Sin.mp3
Channels : 2
Sample Rate : 44100
Precision : 16-bit
Duration : 00:03:47.07 = 10013699 samples = 17030.1 CDDA sectors
File Size : 9.08M
Bit Rate : 320k
Sample Encoding: MPEG audio (layer I, II or III)
Comments :
Title=Chant of the oldest Sin
Artist=Cultist
Album=Chants of Sublimation
Tracknumber=2
Year=2018



Register


Go to the top of the page
  Insert nick Quick quote
+Quote Post
 
Start new topic
Replies (1 - 3)
post Jul 4 2018, 21:28:35
Post #2

Правь статус, ####!111
**************
Group: Металариец
Posts: 2,027
Releases: 0
From: Canada
On Forums: 11 years 6 months
Thanks: 1455 time(s)
Canada


https://www.youtube.com/watch?v=CVgeYKUh5VY
Go to the top of the page
  Insert nick Quick quote
+Quote Post
post May 27 2020, 19:40:35
Post #3

Black is beautiful
***********
Group: Металариец
Posts: 1,985
Releases: 4
On Forums: 12 years 2 months
Thanks: 445 time(s)
Unknown


Not a good sound
Go to the top of the page
  Insert nick Quick quote
+Quote Post
post May 27 2020, 20:06:13
Post #4

Black is beautiful
***********
Group: Металариец
Posts: 1,985
Releases: 4
On Forums: 12 years 2 months
Thanks: 445 time(s)
Unknown


That's how I would mix it!

Equilizer


Thanks:
(1) wreak,
Go to the top of the page
  Insert nick Quick quote
+Quote Post

Reply to this topicStart new topic
2 User(s) are reading this topic (2 Guests and 0 Anonymous Users)
0 Members:

 



- Lo-Fi Version Support form
Copyrights and abuse reports form
Time is now: 24th May 2024 - 20:12:13