Welcome Guest ( Log In | Register )

> Slioch - A Coming Storm [ep] (2018), Death/Thrash Metal
post Jul 5 2018, 18:33:08
Post #1

Правь статус, ####!111
**************
Group: Металариец
Posts: 5,082
Releases: 4667
From: Одесса
On Forums: 13 years 11 months
Thanks: 54162 time(s)
Ukraine


(IMG:http://metalarea.org/images/audiocovers/2018_Jul/acov_tid307902_thumb.jpg)

*Artist: Slioch
*Album: A Coming Storm [ep]
*Year: 2018
*Genre: Death/Thrash Metal
*Country: United Kingdom (IMG:http://metalarea.org/forum/style_images/flags/United%20Kingdom.png)
*Format: mp3@CBR320kbps
*Size: 49MB

Tracklist:
1. A Coming Storm 04:23
2. Bean Nighe 04:15
3. Before Your Eyes 03:55
4. The Exile 05:06
5. Darkness Devoured * 04:31
******************************
Total playing time: 22:10



Extended info
Line - up:

Tim Latham - Bass
Andy Nisbet Drums
Craig Paterson - Guitars (ex-Enrapture)
Mata Druim - Vocals

(IMG:https://www.metal-archives.com/images/3/5/4/0/3540441849_photo.jpg?2933)


Technical info
(IMG:http://metalarea.org/images/spectrogram/2018_Jul/7ffdc4ff0cf229d0c57d360ea87aaf5d.png)
Input File: 05. Darkness Devoured (Bonus Track).mp3
Channels : 2
Sample Rate : 44100
Precision : 16-bit
Duration : 00:04:31.56 = 11975840 samples = 20367.1 CDDA sectors
File Size : 10.9M
Bit Rate : 322k
Sample Encoding: MPEG audio (layer I, II or III)
Comments :
Title=Darkness Devoured (Bonus Track)
Artist=Slioch
Album=A Coming Storm (EP)
Tracknumber=5
Year=2018
Genre=Death / Thrash Metal



Register


Go to the top of the page
  Insert nick Quick quote
+Quote Post
 
Start new topic
Replies (1 - 4)
post Jul 7 2018, 07:34:35
Post #2

MDM-Thrash Metal
**************
Group: Металариец
Posts: 11,084
Releases: 1472
From: Одесса
On Forums: 14 years 9 months
Thanks: 35208 time(s)
Ukraine


ЦИТАТА(Necrokilldozer @ Jul 5 2018, 20:33:08) *
*Genre: Death/Thrash Metal

Та ну на фиг, моднявость какая то!!!
Go to the top of the page
  Insert nick Quick quote
+Quote Post
post Jan 14 2022, 15:47:35    Сейчас играет: Re-up please ;-)
Post #3

Правь статус, ####!111
**************
Group: Металариец
Posts: 2,213
Releases: 0
From: Sofia
On Forums: 14 years 7 months
Thanks: 74 time(s)
Bulgaria


Please re-up (IMG:style_emoticons/default/pray.gif) (IMG:style_emoticons/default/pray.gif)
Go to the top of the page
  Insert nick Quick quote
+Quote Post
post Jan 14 2022, 21:54:11
Post #4

Правь статус, ####!111
**************
Group: Металариец
Posts: 3,053
Releases: 0
On Forums: 7 years 2 weeks
Thanks: 4178 time(s)
Russian Federation


320
Register


Thanks:
(2) wendigo, wreak,
Go to the top of the page
  Insert nick Quick quote
+Quote Post
post Jan 14 2022, 22:04:57
Post #5

Правь статус, ####!111
**************
Group: Металариец
Posts: 2,213
Releases: 0
From: Sofia
On Forums: 14 years 7 months
Thanks: 74 time(s)
Bulgaria


Thank you very much, my friend ! (IMG:style_emoticons/default/true_black.gif) (IMG:style_emoticons/default/true_black.gif) (IMG:style_emoticons/default/true_black.gif)

QUOTE(METALHUNTER @ Jan 14 2022, 20:54:11) *
320

Go to the top of the page
  Insert nick Quick quote
+Quote Post

Reply to this topicStart new topic
1 User(s) are reading this topic (1 Guests and 0 Anonymous Users)
0 Members:

 



- Lo-Fi Version Support form
Copyrights and abuse reports form
Time is now: 24th May 2022 - 20:52:13