Welcome Guest ( Log In | Register )

Объявления

* gmail.com упорно продолжает считать почту с нас "unsolicited" и отбивает в том числе и письма активации, поэтому просьба использовать альтернативные почтовые ящики.
------------
* gmail.com continues reject all mail from us as "unsolicited" (activation mails too) therefore please use alternate mail servers.
> Crispin - La Cruz Del Diablo (2018), Heavy Metal
post Jul 6 2018, 09:02:35
Post #1

Правь статус, ####!111
**************
Group: Металариец
Posts: 35,938
Releases: 26782
From: Г.Харьков
On Forums: 12 years 2 weeks
Thanks: 580866 time(s)
Ukraine


(IMG:https://metalarea.org/images/audiocovers/2018_Jul/acov_tid307923_thumb.jpg)

*Artist: Crispin
*Album: La Cruz Del Diablo
*Year: 2018
*Genre: Heavy Metal
*Country: Paraguay (IMG:https://metalarea.org/forum/style_images/flags/Paraguay.png)
*Format: mp3@CBR320kbps
*Size: 134MB

Tracklist:
1. Hoy No Moriras
2. La Cruz Del Diablo
3. Guerreros En El Tiempo
4. El Heavy Metal Es Mi Religion
5. Por Siempre En Mi Corazón
6. El Beso De La Muerte
7. Donde Estas
8. Cerro Cora
9. El Preso Numero 9
******************************
Total playing time: 58:42



Extended info
Crispin Rodriguez - Bajo
Toto Gonzalez Echeverria - Guitarra
Robert Bernal - Bateria
Cristhian Orquiola - Voz


Technical info
(IMG:https://metalarea.org/images/spectrogram/2018_Jul/cb6882b1bd9eb817d3c72e52d28ce53e.png)
Input File: 03 Guerreros En El Tiempo.mp3
Channels : 2
Sample Rate : 44100
Precision : 16-bit
Duration : 00:05:21.04 = 14157820 samples = 24077.9 CDDA sectors
File Size : 12.8M
Bit Rate : 320k
Sample Encoding: MPEG audio (layer I, II or III)
Comments :
Title=Guerreros En El Tiempo
Artist=Crispin
Album=La Cruz Del Diablo
Tracknumber=3/9
Year=2018
Genre=Heavy Metal
Discnumber=1/1



Register


Thanks:
(1) Rosen,
Go to the top of the page
  Insert nick Quick quote
+Quote Post
 
Start new topic
Replies (1 - 1)
post Sep 1 2022, 00:46:42
Post #2

Четыре Литра
****
Group: Металариец
Posts: 319
Releases: 0
On Forums: 14 years 11 months
Thanks: 7 time(s)
Russian Federation


Please Reupload¡¡¡
Go to the top of the page
  Insert nick Quick quote
+Quote Post

Reply to this topicStart new topic
1 User(s) are reading this topic (1 Guests and 0 Anonymous Users)
0 Members:

 



- Lo-Fi Version Support form
Copyrights and abuse reports form
Time is now: 24th May 2024 - 19:54:32