Welcome Guest ( Log In | Register )

Объявления

* gmail.com упорно продолжает считать почту с нас "unsolicited" и отбивает в том числе и письма активации, поэтому просьба использовать альтернативные почтовые ящики.
------------
* gmail.com continues reject all mail from us as "unsolicited" (activation mails too) therefore please use alternate mail servers.

> И неформату есть предел.

Рэп/хип-хоп/шансон/поп удаляются. Для них есть свои порталы.

> Seas Of Caladan - Seas Of Caladan (2018), Psychedelic/Stoner/Hard Rock
post Jul 8 2018, 09:06:32
Post #1

Аннигилятор пивА
Group Icon
Group: V.I.P
Posts: 52,569
Releases: 16538
From: Koenigsberg - TILZIT
On Forums: 18 years 4 weeks
Thanks: 372014 time(s)
Russian Federation


(IMG:https://metalarea.org/images/audiocovers/2018_Jul/acov_tid307970_thumb.jpg)

*Artist: Seas Of Caladan
*Album: Seas Of Caladan
*Year: 2018
*Genre: Psychedelic/Stoner/Hard Rock
*Country: Australia (IMG:https://metalarea.org/forum/style_images/flags/Australia.png)
*Format: mp3@CBR320kbps
*Size: 146MB

Tracklist:
01. Easy Ride
02. From the Path
03. Scaramanga's Pallbearer
04. Monolith
05. The Count
06. Swamp Blood
07. Six Ways South
08. Elk Tooth
09. The Limit
10. Purple Angel
11. Black Desert Rain
12. Fire Vultures
******************************
Total playing time: 1:04:08

Extended info
Shane (Kam) Charles - Guitar
Paul Cregan - Drums & Percussion
Dan Moran - Bass
Alex Snarski - Vocals & Harp


Technical info
(IMG:https://metalarea.org/images/spectrogram/2018_Jul/5a3315951fdcd7bcb01011efb98be8cd.png)
Input File: 05 The Count.mp3
Channels : 2
Sample Rate : 44100
Precision : 16-bit
Duration : 00:02:32.59 = 6729307 samples = 11444.4 CDDA sectors
File Size : 6.10M
Bit Rate : 320k
Sample Encoding: MPEG audio (layer I, II or III)
Comments :
Title=The Count
Artist=Seas of Caladan
Album=Seas of Caladan
Tracknumber=5
Year=2018



Register


This post has been edited by aesteticvice: Oct 21 2018, 20:59:59


Go to the top of the page
  Insert nick Quick quote
+Quote Post
 
Start new topic
Replies (1 - 1)
post Oct 21 2018, 20:40:55
Post #2

Override the Overture
*********
Group: Металариец
Posts: 935
Releases: 0
From: Moscow
On Forums: 16 years 5 months
Thanks: 273 time(s)
Russian Federation


Link's dead(
Go to the top of the page
  Insert nick Quick quote
+Quote Post

Reply to this topicStart new topic
1 User(s) are reading this topic (1 Guests and 0 Anonymous Users)
0 Members:

 



- Lo-Fi Version Support form
Copyrights and abuse reports form
Time is now: 24th June 2024 - 07:29:36