Welcome Guest ( Log In | Register )

> Militaria - Cyclonic Desolation [ep] (2018), Thrash Metal
post Jul 24 2018, 01:09:50
Post #1

Правь статус, ####!111
**************
Group: Металариец
Posts: 27,349
Releases: 19845
From: Г.Харьков
On Forums: 9 years 4 months
Thanks: 399173 time(s)
Unknown


(IMG:https://metalarea.org/images/audiocovers/2018_Jul/acov_tid308563_thumb.jpg)

*Artist: Militaria
*Album: Cyclonic Desolation [ep]
*Year: 2018
*Genre: Thrash Metal
*Country: Australia (IMG:https://metalarea.org/forum/style_images/flags/Australia.png)
*Format: mp3@CBR320kbps
*Size: 74MB

Tracklist:
1. Carnage Ingredients 06:44 instrumental
2. Catastrophic Invasion 08:20 instrumental
3. Cyclonic Desolation 07:22 instrumental
4. Consolatory Calamity 09:32 instrumental
******************************
Total playing time: 31:58




Extended info
Jordan 'Chalky' Hill All instruments, Songwriting
Эх,-ему бы вокалиста!


Technical info
(IMG:https://metalarea.org/images/spectrogram/2018_Jul/346c816c9d6adb3ec06ce82214241a83.png)
Input File: Militaria - Cyclonic Desolation - 02 Catastrophic Invasion.mp3
Channels : 2
Sample Rate : 44100
Precision : 16-bit
Duration : 00:08:20.56 = 22074652 samples = 37541.9 CDDA sectors
File Size : 20.2M
Bit Rate : 323k
Sample Encoding: MPEG audio (layer I, II or III)
Comments :
Title=Catastrophic Invasion
Artist=Militaria
Album=Cyclonic Desolation
Tracknumber=2
Year=2018



Register


Go to the top of the page
  Insert nick Quick quote
+Quote Post
 
Start new topic
Replies (1 - 1)
post Jun 10 2021, 21:44:21
Post #2

Литр
*
Group: Подсевший
Posts: 51
Releases: 0
On Forums: 12 years 3 months
Thanks: 1 time(s)
Russian Federation


Please Reup¡¡
Go to the top of the page
  Insert nick Quick quote
+Quote Post

Reply to this topicStart new topic
1 User(s) are reading this topic (1 Guests and 0 Anonymous Users)
0 Members:

 



- Lo-Fi Version Support form
Copyrights and abuse reports form
Time is now: 17th September 2021 - 14:45:11