Welcome Guest ( Log In | Register )

> Terrestrial Hospice - Universal Hate Speech [ep] (2018), Black Metal
post Jul 30 2018, 03:49:06
Post #1

Правь статус, ####!111
**************
Group: Металариец
Posts: 4,865
Releases: 1473
From: Brazil
On Forums: 10 years 6 months
Thanks: 57833 time(s)
Brazil


(IMG:https://metalarea.org/images/audiocovers/2018_Jul/acov_tid308768_thumb.jpg)

*Artist: Terrestrial Hospice
*Album: Universal Hate Speech [ep]
*Year: 2018
*Genre: Black Metal
*Country: Poland (IMG:https://metalarea.org/forum/style_images/flags/Poland.png)
*Format: mp3@CBR320kbps
*Size: 45MB

Tracklist:
1. Celebrate (the Last Days of Sunshine) 07:14
2. Lord of the Storms (Emperor cover) 01:58
3. The Accuser 02:58
4. Universal Hate Speech 07:19
******************************
Total playing time: 19:29



Extended info
Lineup

Inferno Drums
See also: Azarath, Behemoth, Witchmaster, ex-Christ Agony, ex-Damnation, ex-Deus Mortem, ex-Delirium

Skyggen Vocals, Guitars, Bass
See also: Tortorum, Dead to This World (live), Gorgoroth (live), ex-Thunderbolt, ex-Darkstorm, ex-Aeternus (live), ex-Legacy of Blood, ex-Veles, ex-Swastyka


Technical info
(IMG:https://metalarea.org/images/spectrogram/2018_Jul/b3a3b829266048eb206190e1701e9552.png)
Input File: 02 Lord of the Storms (Emperor cover).mp3
Channels : 2
Sample Rate : 44100
Precision : 16-bit
Duration : 00:01:58.08 = 5207284 samples = 8855.93 CDDA sectors
File Size : 4.72M
Bit Rate : 320k
Sample Encoding: MPEG audio (layer I, II or III)
Comments :
Title=Lord of the Storms (Emperor cover)
Artist=Terrestrial Hospice
Album=Universal Hate Speech
Tracknumber=2
Year=2018



Register


Go to the top of the page
  Insert nick Quick quote
+Quote Post
 
Start new topic
Replies (1 - 3)
post Jul 30 2018, 19:32:47
Post #2

Only death is real
**************
Group: Металариец
Posts: 2,141
Releases: 0
From: R'lyeh
On Forums: 5 years 8 months
Thanks: 3029 time(s)
Iceland


Excellent EP!


Thanks:
Go to the top of the page
  Insert nick Quick quote
+Quote Post
post Dec 12 2018, 19:42:10
Post #3

melofags sniper
**************
Group: Металариец
Posts: 7,028
Releases: 0
On Forums: 14 years 5 months
Thanks: 8735 time(s)
Sudan


Very good release (IMG:style_emoticons/default/9.gif)


Thanks:
Go to the top of the page
  Insert nick Quick quote
+Quote Post
post May 21 2022, 14:17:28
Post #4

Full-of-Hate
**************
Group: Металариец
Posts: 4,979
Releases: 0
From: Moscow
On Forums: 13 years 1 month
Thanks: 5558 time(s)
Russian Federation


А ведь действительно хороши, курррвы польские.
Инферно раздает по полной.


Thanks:
(1) WOLAND,
Go to the top of the page
  Insert nick Quick quote
+Quote Post

Reply to this topicStart new topic
1 User(s) are reading this topic (1 Guests and 0 Anonymous Users)
0 Members:

 



- Lo-Fi Version Support form
Copyrights and abuse reports form
Time is now: 15th August 2022 - 02:02:11