Welcome Guest ( Log In | Register )

Объявления

* gmail.com упорно продолжает считать почту с нас "unsolicited" и отбивает в том числе и письма активации, поэтому просьба использовать альтернативные почтовые ящики.
------------
* gmail.com continues reject all mail from us as "unsolicited" (activation mails too) therefore please use alternate mail servers.
> Embedded Flesh & Sebum Excess Production - Embedded Flesh/Sebum Excess Production [split] (2018), Goregrind | Goregrind (D21)
post Aug 7 2018, 13:18:25
Post #1

Serial Uploader
Group Icon
Group: V.I.P
Posts: 42,601
Releases: 40667
From: Lithuania
On Forums: 15 years 11 months
Thanks: 521230 time(s)
Lithuania


(IMG:https://metalarea.org/images/audiocovers/2018_Aug/acov_tid309117_thumb.jpg)

*Artist: Embedded Flesh & Sebum Excess Production
*Album: Embedded Flesh/Sebum Excess Production [split]
*Year: 2018
*Genre: Goregrind | Goregrind
*Country: United States (IMG:https://metalarea.org/forum/style_images/flags/United%20States.png) | Brazil (IMG:https://metalarea.org/forum/style_images/flags/Brazil.png)
*Format: mp3@CBR320kbps
*Size: 35MB

Tracklist:
Embedded Flesh:
01. Exploding Heart 00:43
02. Melting 01:04
03. Cruel Ways Of Teaching 01:04
04. Congenital Burns And Deformations 01:05
05. Cycles Of Pulsating Epilepticus 00:50
06. Thymus Readings 01:08
07. Mentally Disordered And Thrown Out 00:54
08. Tumours 00:55
09. Get Brutally Sodomized 01:34
Sebum Excess Production:
10. Acne Cyst 01:16
11. Arachnoid Cyst 01:00
12. Baker's Cyst Or Popliteal Cyst 01:10
13. Bartholin's Cyst (Near The Vagina) 01:06
14. Breast Cyst 01:15
******************************
Total playing time: 15:04





Technical info
(IMG:https://metalarea.org/images/spectrogram/2018_Aug/76401c31b7080c7b5e534bb3018cb305.png)
Input File: 11. Arachnoid cyst.mp3
Channels : 2
Sample Rate : 44100
Precision : 16-bit
Duration : 00:01:00.19 = 2654335 samples = 4514.18 CDDA sectors
File Size : 2.55M
Bit Rate : 339k
Sample Encoding: MPEG audio (layer I, II or III)
Comments :
Title=Arachnoid cyst
Artist=Sebum Excess Production
Album=Embedded Flesh/Sebum Excess Production
Tracknumber=11
Year=2018



Register


Go to the top of the page
  Insert nick Quick quote
+Quote Post
 
Start new topic
Replies (1 - 7)
post Oct 25 2022, 02:42:04
Post #2

Split Backup Copy
**************
Group: Металариец
Posts: 5,580
Releases: 243
From: с. Мизоново, Ишимский Район, Тюменская область
On Forums: 16 years 5 months
Thanks: 4116 time(s)
Russian Federation


Reupload please
Go to the top of the page
  Insert nick Quick quote
+Quote Post
post Jan 7 2023, 07:55:00
Post #3

Split Backup Copy
**************
Group: Металариец
Posts: 5,580
Releases: 243
From: с. Мизоново, Ишимский Район, Тюменская область
On Forums: 16 years 5 months
Thanks: 4116 time(s)
Russian Federation


Перезалейте, пожалуйста.
Go to the top of the page
  Insert nick Quick quote
+Quote Post
post Mar 5 2023, 11:11:29
Post #4

Split Backup Copy
**************
Group: Металариец
Posts: 5,580
Releases: 243
From: с. Мизоново, Ишимский Район, Тюменская область
On Forums: 16 years 5 months
Thanks: 4116 time(s)
Russian Federation


Reupload please
Go to the top of the page
  Insert nick Quick quote
+Quote Post
post May 25 2023, 21:34:55
Post #5

Split Backup Copy
**************
Group: Металариец
Posts: 5,580
Releases: 243
From: с. Мизоново, Ишимский Район, Тюменская область
On Forums: 16 years 5 months
Thanks: 4116 time(s)
Russian Federation


Перезалейте, пожалуйста.
Go to the top of the page
  Insert nick Quick quote
+Quote Post
post Aug 11 2023, 03:51:51
Post #6

Split Backup Copy
**************
Group: Металариец
Posts: 5,580
Releases: 243
From: с. Мизоново, Ишимский Район, Тюменская область
On Forums: 16 years 5 months
Thanks: 4116 time(s)
Russian Federation


Reupload please
Go to the top of the page
  Insert nick Quick quote
+Quote Post
post Nov 3 2023, 07:01:01
Post #7

Split Backup Copy
**************
Group: Металариец
Posts: 5,580
Releases: 243
From: с. Мизоново, Ишимский Район, Тюменская область
On Forums: 16 years 5 months
Thanks: 4116 time(s)
Russian Federation


Перезалейте, пожалуйста.
Go to the top of the page
  Insert nick Quick quote
+Quote Post
post Nov 4 2023, 11:47:33
Post #8

Четыре Литра
****
Group: Металариец
Posts: 352
Releases: 0
From: Нижегородская обл.
On Forums: 17 years 8 months
Thanks: 377 time(s)
Russian Federation


ЦИТАТА(Lanceatum @ 3rd November 2023 - 09:01:01) *
Перезалейте, пожалуйста.

Register


Thanks:
(1) Lanceatum,
Go to the top of the page
  Insert nick Quick quote
+Quote Post

Reply to this topicStart new topic
2 User(s) are reading this topic (2 Guests and 0 Anonymous Users)
0 Members:

 



- Lo-Fi Version Support form
Copyrights and abuse reports form
Time is now: 26th May 2024 - 09:30:12