Welcome Guest ( Log In | Register )

> Enemy - Pulsión De Muerte (2018), Old School Death/Thrash Metal
post Aug 12 2018, 13:44:18
Post #1

Правь статус, ####!111
**************
Group: Металариец
Posts: 25,808
Releases: 18479
From: Г.Харьков
On Forums: 8 years 11 months
Thanks: 365085 time(s)
Unknown


(IMG:http://metalarea.org/images/audiocovers/2018_Aug/acov_tid309310_thumb.Jpg)

*Artist: Enemy
*Album: Pulsión De Muerte
*Year: 2018
*Genre: Old School Death/Thrash Metal
*Country: Colombia (IMG:http://metalarea.org/forum/style_images/flags/Colombia.png)
*Format: mp3@VBR268kbps
*Size: 62MB

Tracklist:
1. Intro instrumental
2. Aplastados Por la Fe
3. Dictadura de la Cruz
4. Culto a la Muerte
5. Purga
6. Subyugado
7. Falso Profeta
8. Cáncer
9. Pulsión de Muerte
******************************
Total playing time: 30:05



Extended info
Scene CD-Rip
Daniel Mora Bass
Andres Suarez Drums
Santiago Marin Guitars (rhythm)
Johnathan Calle Vocals, Guitars (lead)


Technical info
(IMG:http://metalarea.org/images/spectrogram/2018_Aug/434d7e7737f4280f8cd4a39debdb7d32.png)
Input File: 02-enemy-aplastados_por_la_fe.mp3
Channels : 2
Sample Rate : 44100
Precision : 16-bit
Duration : 00:03:56.43 = 10426387 samples = 17732 CDDA sectors
File Size : 8.23M
Bit Rate : 279k
Sample Encoding: MPEG audio (layer I, II or III)
Comments :
Title=Aplastados Por la Fe
Artist=Enemy
Album=Pulsion De Muerte
Tracknumber=2/9
Year=2018-00-00
Genre=Metal



Register


Go to the top of the page
  Insert nick Quick quote
+Quote Post
 
Start new topic
Replies (1 - 3)
post Aug 12 2018, 23:11:24
Post #2

Совки, гулаги, дефициты
***********
Group: Металариец
Posts: 1,739
Releases: 0
From: Беларусь, Минск
On Forums: 13 years 9 months
Thanks: 873 time(s)
Belarus


Отличный альбом.


Go to the top of the page
  Insert nick Quick quote
+Quote Post
post Aug 14 2018, 16:33:14
Post #3

Common dweller of hell
**************
Group: Металариец
Posts: 3,681
Releases: 12
From: Dnipro
On Forums: 12 years 9 months
Thanks: 1441 time(s)
Ukraine


Было бы отлично если бы не "испанская мова". Протектор чем то напоминает.
Go to the top of the page
  Insert nick Quick quote
+Quote Post
post Apr 13 2021, 20:52:05
Post #4

Три Литра
***
Group: Завсегдатай
Posts: 297
Releases: 0
On Forums: 7 years 3 months
Thanks: 761 time(s)
Russian Federation


Register


Thanks:
Go to the top of the page
  Insert nick Quick quote
+Quote Post

Reply to this topicStart new topic
1 User(s) are reading this topic (1 Guests and 0 Anonymous Users)
0 Members:

 



- Lo-Fi Version Support form
Copyrights and abuse reports form
Time is now: 21st April 2021 - 15:02:52