Welcome Guest ( Log In | Register )

> 

Здесь релизы с живыми прямыми ссылками на lossless

> Atomik - The Fallout (2018), Old School Thrash/Speed Metal
post Sep 5 2018, 19:48:32
Post #1

Аннигилятор пивА
Group Icon
Group: V.I.P
Posts: 52,360
Releases: 16550
From: Koenigsberg - TILZIT
On Forums: 14 years 11 months
Thanks: 367534 time(s)
Russian Federation


(IMG:https://metalarea.org/images/audiocovers/2018_Sep/acov_tid310234_thumb.jpg)

*Artist: Atomik
*Album: The Fallout
*Year: 2018
*Genre: Old School Thrash/Speed Metal
*Country: United States (IMG:https://metalarea.org/forum/style_images/flags/United%20States.png)
*Format: mp3@CBR320kbps
*Size: 122MB

Tracklist:
01. Metal Injection 03:45
02. The Truth 04:01
03. Premonition 03:08
04. Salem 03:04
05. Zodiac 03:48
06. Fallout 02:53
07. Vibe 04:26
08. Pre-Fection 02:04
09. Undead Upsurge 03:54
10. Upon Us All 06:35
11. Self-destruction 02:38
12. 2012 04:08
13. Prepare to Launch 04:30
14. Rubberneckers 00:57
15. Death or Glory 05:30
******************************
Total playing time: 55:21



Extended info
Andres Gonzalez - Bass (2009-2013, 2017-present)
Chris Fonseca - Drums (2009-present)
Mario Carvajal - Guitars (lead) (2009-present) See also: Combat
Ryan Taylor - Guitars, Vocals (2009-present) See also: Combat, Condition Critical, Solstice, Lich King, ex-Thrash or Die, ex-Urban Warfare


Technical info
(IMG:https://metalarea.org/images/spectrogram/2018_Sep/b30b1ccc7a827b533d9a274db28ec18c.png)
Input File: 03. Premonition.mp3
Channels : 2
Sample Rate : 44100
Precision : 16-bit
Duration : 00:03:07.99 = 8290359 samples = 14099.2 CDDA sectors
File Size : 7.62M
Bit Rate : 324k
Sample Encoding: MPEG audio (layer I, II or III)
Comments :
Title=Premonition
Artist=Atomik
Album=The Fallout
Tracknumber=3
Year=2018
Discnumber=1



Register


Go to the top of the page
  Insert nick Quick quote
+Quote Post
 
Start new topic
Replies (1 - 4)
post Sep 6 2018, 06:18:23
Post #2

Аннигилятор пивА
Group Icon
Group: V.I.P
Posts: 52,360
Releases: 16550
From: Koenigsberg - TILZIT
On Forums: 14 years 11 months
Thanks: 367534 time(s)
Russian Federation


mirror
Register



Go to the top of the page
  Insert nick Quick quote
+Quote Post
post Sep 10 2018, 14:37:19
Post #3

South Of Heaven /адепт ВУДУ
**************
Group: Металариец
Posts: 13,960
Releases: 9
On Forums: 11 years 1 month
Thanks: 5557 time(s)
Unknown


Дебютник и очень даже гуд!
Go to the top of the page
  Insert nick Quick quote
+Quote Post
post May 4 2021, 19:33:21
Post #4

Добрый
**************
Group: Металариец
Posts: 4,785
Releases: 0
On Forums: 2 years 10 months
Thanks: 11801 time(s)
Russian Federation


119 mb/320 kbps
Register


Go to the top of the page
  Insert nick Quick quote
+Quote Post
post May 5 2021, 15:24:18
Post #5

Четыре Литра
****
Group: Металариец
Posts: 313
Releases: 0
On Forums: 7 years 4 months
Thanks: 795 time(s)
Russian Federation


Register


Thanks:
Go to the top of the page
  Insert nick Quick quote
+Quote Post

Reply to this topicStart new topic
1 User(s) are reading this topic (1 Guests and 0 Anonymous Users)
0 Members:

 



- Lo-Fi Version Support form
Copyrights and abuse reports form
Time is now: 16th May 2021 - 19:51:00