Welcome Guest ( Log In | Register )

Объявления

* gmail.com упорно продолжает считать почту с нас "unsolicited" и отбивает в том числе и письма активации, поэтому просьба использовать альтернативные почтовые ящики.
------------
* gmail.com continues reject all mail from us as "unsolicited" (activation mails too) therefore please use alternate mail servers.
> La Torture Des Ténèbres & Ashen Chalice - Ashen Chalice/La Torture Des Ténèbres [split] (2018), Black Metal/Ambient | Black Metal/Ambient (D5)
post Sep 15 2018, 15:20:26
Post #1

Правь статус, ####!111
**************
Group: Металариец
Posts: 7,559
Releases: 6913
From: Одесса
On Forums: 15 years 11 months
Thanks: 80537 time(s)
Ukraine


(IMG:http://metalarea.org/images/audiocovers/2018_Sep/acov_tid310643_thumb.jpg)

*Artist: La Torture Des Ténèbres & Ashen Chalice
*Album: Ashen Chalice/La Torture Des Ténèbres [split]
*Year: 2018
*Genre: Black Metal/Ambient | Black Metal/Ambient
*Country: Canada (IMG:http://metalarea.org/forum/style_images/flags/Canada.png) | Croatia (IMG:http://metalarea.org/forum/style_images/flags/Croatia.png)
*Format: mp3@CBR320kbps
*Size: 67MB

Tracklist:
La Torture des Ténèbres:
1. L'Éloignement 15:06
Ashen Chalice:
2. Represija ljuvabi 13:05
******************************
Total playing time: 28:11



Extended info
FLAC RIP


Technical info
(IMG:http://metalarea.org/images/spectrogram/2018_Sep/2e58737de3a943a63b9d703ec5275d62.png)
Input File: 01. La Torture Des Ténèbres - L\'Éloignement.mp3
Channels : 2
Sample Rate : 48000
Precision : 16-bit
Duration : 00:15:06.36 = 43505424 samples ~ 67977.2 CDDA sectors
File Size : 36.3M
Bit Rate : 320k
Sample Encoding: MPEG audio (layer I, II or III)
Comments :
Title=L'Eloignement
Artist=La Torture des Ténèbres
Album=Ashen Chalice / La Torture des Ténèbres (Split)
Tracknumber=1
Year=2018
Genre=Black Metal / Ambient



Register


Go to the top of the page
  Insert nick Quick quote
+Quote Post
 
Start new topic
Replies (1 - 1)
post Nov 26 2022, 00:22:31
Post #2

Правь статус, ####!111
**************
Group: Металариец
Posts: 2,772
Releases: 1
From: ecuador
On Forums: 15 years 10 months
Thanks: 3339 time(s)
Ecuador


Register
Go to the top of the page
  Insert nick Quick quote
+Quote Post

Reply to this topicStart new topic
1 User(s) are reading this topic (1 Guests and 0 Anonymous Users)
0 Members:

 



- Lo-Fi Version Support form
Copyrights and abuse reports form
Time is now: 25th May 2024 - 18:37:02