Welcome Guest ( Log In | Register )

> Dalkhu - Lamentation And Ardent Fire (2018), Black Metal
post Sep 20 2018, 15:42:11
Post #1

Аннигилятор пивА
Group Icon
Group: V.I.P
Posts: 52,360
Releases: 16550
From: Koenigsberg - TILZIT
On Forums: 15 years 6 months
Thanks: 368614 time(s)
Russian Federation


(IMG:https://metalarea.org/images/audiocovers/2018_Sep/acov_tid310839_thumb.jpg)

*Artist: Dalkhu
*Album: Lamentation And Ardent Fire
*Year: 2018
*Genre: Black Metal
*Country: Slovenia (IMG:https://metalarea.org/forum/style_images/flags/Slovenia.png)
*Format: mp3@CBR320kbps
*Size: 102MB

Tracklist:
1. Profanity Galore 07:44
2. I Am 07:37
3. Rime 06:07
4. A Race Without Hope 03:16
5. Gaps of Existence 06:33
6. The Dead Sleep With Their Eyes Open 04:51
7. Night 06:42
******************************
Total playing time: 42:50



Extended info
Kalki - Drums
J.G. - Guitars, Bass
Lucerus - Vocals


Technical info
(IMG:https://metalarea.org/images/spectrogram/2018_Sep/79f73f5217d5b91e8f876bec5c152bb6.png)
Input File: 05 Gaps of Existence.mp3
Channels : 2
Sample Rate : 44100
Precision : 16-bit
Duration : 00:06:33.45 = 17351189 samples = 29508.8 CDDA sectors
File Size : 16.1M
Bit Rate : 326k
Sample Encoding: MPEG audio (layer I, II or III)
Comments :
Title=Gaps Of Existence
Artist=Dalkhu
Album=Lamentation And Ardent Fire
Tracknumber=05
Year=2018



Register


Go to the top of the page
  Insert nick Quick quote
+Quote Post
 
Start new topic
Replies (1 - 4)
post Sep 20 2018, 16:19:11
Post #2

Аннигилятор пивА
Group Icon
Group: V.I.P
Posts: 52,360
Releases: 16550
From: Koenigsberg - TILZIT
On Forums: 15 years 6 months
Thanks: 368614 time(s)
Russian Federation


MIRROR
Register

Register


Go to the top of the page
  Insert nick Quick quote
+Quote Post
post Sep 21 2018, 09:30:46
Post #3

Common dweller of hell
**************
Group: Металариец
Posts: 4,131
Releases: 12
From: Dnipro
On Forums: 13 years 4 months
Thanks: 1614 time(s)
Ukraine


Заслуживают похвалы, словенцы выдали сосем не плохой альбом.


Thanks:
(1) Foneg,
Go to the top of the page
  Insert nick Quick quote
+Quote Post
post Sep 22 2018, 18:08:02
Post #4

Маньяк
**********
Group: Металариец
Posts: 1,321
Releases: 1
From: Беларусь
On Forums: 13 years 11 months
Thanks: 561 time(s)
Russian Federation


ЦИТАТА(isvili @ Sep 21 2018, 11:30:46) *
Заслуживают похвалы, словенцы выдали сосем не плохой альбом.

Да, после предыдущих невнятных этот вполне слушабельный. Даже отголоски модных нынче Mgla, Uada имеются
Go to the top of the page
  Insert nick Quick quote
+Quote Post
post Jan 24 2021, 19:21:23
Post #5

Black is beautiful
***********
Group: Металариец
Posts: 1,885
Releases: 4
On Forums: 9 years 9 months
Thanks: 393 time(s)
Unknown


Good!
(IMG:style_emoticons/default/true_black.gif) (IMG:style_emoticons/default/true_black.gif) (IMG:style_emoticons/default/true_black.gif)
Go to the top of the page
  Insert nick Quick quote
+Quote Post

Reply to this topicStart new topic
1 User(s) are reading this topic (1 Guests and 0 Anonymous Users)
0 Members:

 



- Lo-Fi Version Support form
Copyrights and abuse reports form
Time is now: 9th December 2021 - 06:01:22