Welcome Guest ( Log In | Register )

 
Reply to this topicStart new topic
> Life Of Scars - When The Devil Walks In (2018), Death/Thrash Metal
post Sep 20 2018, 19:12:56
Post #1

Правь статус, ####!111
**************
Group: Металариец
Posts: 29,934
Releases: 22028
From: Г.Харьков
On Forums: 10 years 3 months
Thanks: 458243 time(s)
Unknown


(IMG:http://metalarea.org/images/audiocovers/2018_Sep/acov_tid310854_thumb.jpg)

*Artist: Life Of Scars
*Album: When The Devil Walks In
*Year: 2018
*Genre: Death/Thrash Metal
*Country: United States (IMG:http://metalarea.org/forum/style_images/flags/United%20States.png)
*Format: mp3@CBR320kbps
*Size: 81MB

Tracklist:
1. Dwi Intro 01:07
2. When the Devil Walks In 04:27
3. With My Last Breath 03:53
4. There's No Coming Down 05:11
5. Just Because I Can 03:00
6. All Is Lost 05:11
7. Give Me a Reason 04:04
8. Let There Be Darkness 05:01
9. Legacy of Pain 06:16
******************************
Total playing time: 38:10



Extended info
Anthony Walker Drums
See also: Demonseed, ex-Amoricide, ex-Unchecked Aggression, ex-Vitality, ex-Hammer Witch, Motorbreath, ex-Interment, ex-Prophecy, ex-Alcohollica (USA), ex-Creophagy
Michael Huebner Guitars
See also: ex-Hell Goat, ex-Black Summer Rain
Wayne Abney Vocals, Bass
See also: ex-Hammer Witch, ex-Warbeast (live), ex-Null & Void


Technical info
(IMG:http://metalarea.org/images/spectrogram/2018_Sep/fdd44892c5a0b35c909a96bb74f5b97c.png)
Input File: 03 - With My Last Breath.mp3
Channels : 2
Sample Rate : 44100
Precision : 16-bit
Duration : 00:03:53.03 = 10276403 samples = 17476.9 CDDA sectors
File Size : 9.40M
Bit Rate : 323k
Sample Encoding: MPEG audio (layer I, II or III)
Comments :
Title=With My Last Breath
Artist=Life Of Scars
Album=When The Devil Walks In
Tracknumber=03/09
Year=2018
Discnumber=1/1



Register


Go to the top of the page
  Insert nick Quick quote
+Quote Post
post Sep 21 2018, 09:30:16
Post #2

Правь статус, ####!111
**************
Group: Металариец
Posts: 29,934
Releases: 22028
From: Г.Харьков
On Forums: 10 years 3 months
Thanks: 458243 time(s)
Unknown


Cloud Mail 320
Register


Thanks:
(1) boby9052,
Go to the top of the page
  Insert nick Quick quote
+Quote Post
post Jan 23 2022, 11:28:28    Сейчас играет: Re-up please ;-)
Post #3

Правь статус, ####!111
**************
Group: Металариец
Posts: 2,316
Releases: 0
From: Sofia
On Forums: 14 years 10 months
Thanks: 79 time(s)
Bulgaria


Please re-up (IMG:style_emoticons/default/pray.gif) (IMG:style_emoticons/default/pray.gif)
Go to the top of the page
  Insert nick Quick quote
+Quote Post

Reply to this topicStart new topic
1 User(s) are reading this topic (1 Guests and 0 Anonymous Users)
0 Members:

 



- Lo-Fi Version Support form
Copyrights and abuse reports form
Time is now: 11th August 2022 - 18:16:13