Welcome Guest ( Log In | Register )

> И неформату есть предел.

Рэп/хип-хоп/шансон/поп удаляются. Для них есть свои порталы.

> Noekk - Carol Stones And Elder Rock [ep] (2018), Progressive Rock/Dark Folk
post Sep 27 2018, 13:02:31
Post #1

Аннигилятор пивА
Group Icon
Group: V.I.P
Posts: 52,360
Releases: 16550
From: Koenigsberg - TILZIT
On Forums: 14 years 10 months
Thanks: 367417 time(s)
Russian Federation


(IMG:https://metalarea.org/images/audiocovers/2018_Sep/acov_tid311100_thumb.jpg)

*Artist: Noekk
*Album: Carol Stones And Elder Rock [ep]
*Year: 2018
*Genre: Progressive Rock/Dark Folk
*Country: Germany (IMG:https://metalarea.org/forum/style_images/flags/Germany.png)
*Format: mp3@CBR320kbps
*Size: 28MB

Tracklist:
1. A Loss
2. Pan
3. A Vision
4. Archaic Tune
******************************
Total playing time: 12:01




Extended info
"Carol Stones and Elder Rock" focuses on the acoustic, rather airy aspect of Noekk's new material. Therefore, it hints at the stylistic direction the upcoming longplayer will take but stands slightly apart in a way. The material for the single was written during November and December of 2017, inspired by Munich-based artist Peter Wolfgang Kassel (alias PWK), who also provided the lyrics. "They transport an atmosphere that is maybe best described as 'autumnal mystique' and delve deep into the soul," says Funghus, the musical head of the project. "Their character was crucial to the sound and instrumentation of the music."

F. F. Yuggoth - Drums, Bass, Guitars (Deinonychus, Empyrium, Eudaimony, Ewigheim, Sun of the Sleepless, The Vision Bleak, ex-Nachtmahr, ex-Autumnblaze, ex-Dornenreich)
Funghus Baldachin - Vocals, Keyboards, Guitars (Empyrium, ex-Nachtmahr, ex-Sharatan, ex-Dornenreich, ex-Sun of the Sleepless)


Technical info
(IMG:https://metalarea.org/images/spectrogram/2018_Sep/bcd68bd6b68740e676d4b353ff18de91.png)
Input File: 02 Pan.mp3
Channels : 2
Sample Rate : 44100
Precision : 16-bit
Duration : 00:03:24.92 = 9036928 samples = 15368.9 CDDA sectors
File Size : 8.45M
Bit Rate : 330k
Sample Encoding: MPEG audio (layer I, II or III)
Comments :
Title=Pan
Artist=Noekk
Album=Carol Stones and Elder Rock
Tracknumber=2/4
Year=2018
Discnumber=1/1



Register


Go to the top of the page
  Insert nick Quick quote
+Quote Post
 
Start new topic
Replies (1 - 9)
post Sep 27 2018, 13:43:18
Post #2

Аннигилятор пивА
Group Icon
Group: V.I.P
Posts: 52,360
Releases: 16550
From: Koenigsberg - TILZIT
On Forums: 14 years 10 months
Thanks: 367417 time(s)
Russian Federation


Боги вернулись (IMG:style_emoticons/default/pray.gif)
mirror
Register



Go to the top of the page
  Insert nick Quick quote
+Quote Post
post Oct 1 2018, 15:10:43
Post #3

ЗаDOOMчивый
***********
Group: Металариец
Posts: 1,726
Releases: 27
From: Cradlовская обл., г. Нижний Gorgoroth, р-н Doom-о-Deathово
On Forums: 12 years 4 months
Thanks: 1246 time(s)
Russian Federation


aesteticvice,
архив не открывается.
Go to the top of the page
  Insert nick Quick quote
+Quote Post
post Oct 1 2018, 15:38:14
Post #4

ЗаDOOMчивый
***********
Group: Металариец
Posts: 1,726
Releases: 27
From: Cradlовская обл., г. Нижний Gorgoroth, р-н Doom-о-Deathово
On Forums: 12 years 4 months
Thanks: 1246 time(s)
Russian Federation


На Карелии - антивирь ругается, но даже если отключить - всё равно архив не открывается.
Go to the top of the page
  Insert nick Quick quote
+Quote Post
post Oct 1 2018, 17:43:26
Post #5

Кожаный ублюдок
**************
Group: Металариец
Posts: 3,337
Releases: 6
From: Алчевск (early) Некросибирск (now)
On Forums: 11 years 11 months
Thanks: 2223 time(s)
Russian Federation


В маке все открывается (IMG:style_emoticons/default/bye.gif)
Go to the top of the page
  Insert nick Quick quote
+Quote Post
post Oct 1 2018, 21:08:15
Post #6

ЗаDOOMчивый
***********
Group: Металариец
Posts: 1,726
Releases: 27
From: Cradlовская обл., г. Нижний Gorgoroth, р-н Doom-о-Deathово
On Forums: 12 years 4 months
Thanks: 1246 time(s)
Russian Federation


SatanicPanzer,
ну так переархивировал бы и залил для простых смертных. (IMG:style_emoticons/default/smile3.gif)

Распаковал последним 7zip.
Go to the top of the page
  Insert nick Quick quote
+Quote Post
post Oct 3 2018, 07:42:50
Post #7

К = 8,29
**************
Group: Металариец
Posts: 6,214
Releases: 17
From: Минск
On Forums: 12 years 3 months
Thanks: 5597 time(s)
Belarus


И у меня не открывается.
Go to the top of the page
  Insert nick Quick quote
+Quote Post
post Oct 3 2018, 08:15:40
Post #8

ЗаDOOMчивый
***********
Group: Металариец
Posts: 1,726
Releases: 27
From: Cradlовская обл., г. Нижний Gorgoroth, р-н Doom-о-Deathово
On Forums: 12 years 4 months
Thanks: 1246 time(s)
Russian Federation


ddx1,
скачай 7zip последний.


Thanks:
(1) ddx1,
Go to the top of the page
  Insert nick Quick quote
+Quote Post
post Oct 3 2018, 08:28:33
Post #9

К = 8,29
**************
Group: Металариец
Posts: 6,214
Releases: 17
From: Минск
On Forums: 12 years 3 months
Thanks: 5597 time(s)
Belarus


Kaphiel, внатури сработало!
Go to the top of the page
  Insert nick Quick quote
+Quote Post
post Oct 4 2018, 00:13:58
Post #10

Литр
*
Group: Подсевший
Posts: 62
Releases: 3
From: Тула
On Forums: 3 years 7 months
Thanks: 353 time(s)
Russian Federation


Register


Register






Thanks:
Go to the top of the page
  Insert nick Quick quote
+Quote Post

Reply to this topicStart new topic
2 User(s) are reading this topic (2 Guests and 0 Anonymous Users)
0 Members:

 



- Lo-Fi Version Support form
Copyrights and abuse reports form
Time is now: 18th April 2021 - 13:01:59