Welcome Guest ( Log In | Register )

Объявления

* gmail.com упорно продолжает считать почту с нас "unsolicited" и отбивает в том числе и письма активации, поэтому просьба использовать альтернативные почтовые ящики.
------------
* gmail.com continues reject all mail from us as "unsolicited" (activation mails too) therefore please use alternate mail servers.
> Mongol - The Return (2018), Folk/Melodic Death Metal (D4)
post Oct 4 2018, 12:11:36
Post #1

Правь статус, ####!111
**************
Group: Металариец
Posts: 36,412
Releases: 27150
From: Г.Харьков
On Forums: 12 years 2 months
Thanks: 591287 time(s)
Ukraine


(IMG:http://metalarea.org/images/audiocovers/2018_Oct/acov_tid311353_thumb.jpg)

*Artist: Mongol
*Album: The Return
*Year: 2018
*Genre: Folk/Melodic Death Metal
*Country: Canada (IMG:http://metalarea.org/forum/style_images/flags/Canada.png)
*Format: mp3@CBR320kbps
*Size: 109MB

Tracklist:
1. Prophecy of the Blind 02:38
2. The Return 04:26
3. Sacrificial Rites 03:11
4. Takhil 01:01
5. Amongst the Dead 06:52
6. To the Wind 05:44
7. Dschingis Khan 02:59
8. The Mountain Weeps 05:49
9. River Child 05:11
10. Warband 07:15
******************************
Total playing time: 45:06



Extended info
Zev Guitars (lead), Banjo, Mandolin
Tev Tegri Vocals
Bourchi Drums
Zelme Guitars (rhythm), Vocals (backing), Vocals
Sche-khe Keyboards, Accordion
Sorkhon Sharr Bass


Technical info
(IMG:http://metalarea.org/images/spectrogram/2018_Oct/0e3d38c2eb38680fcb2a14653988b9f4.png)
Input File: 03 Sacrificial Rites.mp3
Channels : 2
Sample Rate : 44100
Precision : 16-bit
Duration : 00:01:01.16 = 2696980 samples = 4586.7 CDDA sectors
File Size : 3.05M
Bit Rate : 399k
Sample Encoding: MPEG audio (layer I, II or III)
Comments :
Title=Sacrificial Rites
Artist=Mongol
Album=The Return
Tracknumber=3/10
Year=2018
Genre=Metal
Discnumber=1/1



Register


Go to the top of the page
  Insert nick Quick quote
+Quote Post
 
Start new topic
Replies (1 - 5)
post Oct 4 2018, 12:29:20
Post #2

Правь статус, ####!111
**************
Group: Металариец
Posts: 36,412
Releases: 27150
From: Г.Харьков
On Forums: 12 years 2 months
Thanks: 591287 time(s)
Ukraine


Cloud Mail 320
Register


Go to the top of the page
  Insert nick Quick quote
+Quote Post
post Oct 5 2018, 10:36:39
Post #3

Ъ
**************
Group: Металариец
Posts: 11,222
Releases: 9
On Forums: 15 years 6 months
Thanks: 2279 time(s)
Sweden



Третьесорт.


Thanks:
(1) artscald,
Go to the top of the page
  Insert nick Quick quote
+Quote Post
post Oct 5 2018, 11:29:56
Post #4

Ёлд ХеллоВяйне
Group Icon
Group: V.I.P
Posts: 34,917
Releases: 143
From: Питер
On Forums: 17 years 8 months
Thanks: 22024 time(s)
Russian Federation


QUOTE(Samaritianin @ 4th October 2018 - 14:11:36) *
7. Dschingis Khan 02:59


Едрить, это ж кавер на... собственно Чингис-хан, диско-немцев из 70-х (IMG:style_emoticons/default/crazy.gif) Беру!
Go to the top of the page
  Insert nick Quick quote
+Quote Post
post Oct 5 2018, 16:47:32
Post #5

Common dweller of hell
**************
Group: Металариец
Posts: 5,477
Releases: 12
From: Dnipro
On Forums: 16 years 4 days
Thanks: 2221 time(s)
Ukraine


Скачаю только из за кавера (IMG:style_emoticons/default/15.gif)

ЦИТАТА(DenisKov @ Oct 5 2018, 12:36:39) *
Третьесорт.

По чему то уверен что ты альбома не слушал (IMG:style_emoticons/default/25.gif)
Go to the top of the page
  Insert nick Quick quote
+Quote Post
post Oct 6 2018, 21:40:18
Post #6

Шесть Литров
******
Group: Металариец
Posts: 591
Releases: 26
On Forums: 15 years 1 month
Thanks: 579 time(s)
Chile


Thanks (IMG:style_emoticons/default/dwarf-1.gif)


Thanks:
(1) BrutalMan,
Go to the top of the page
  Insert nick Quick quote
+Quote Post

Reply to this topicStart new topic
2 User(s) are reading this topic (2 Guests and 0 Anonymous Users)
0 Members:

 



- Lo-Fi Version Support form
Copyrights and abuse reports form
Time is now: 15th July 2024 - 22:26:58