Welcome Guest ( Log In | Register )

> Żywia - Słowiańska Wiara (2014), Folk/Pagan Metal
post Oct 4 2018, 19:04:30
Post #1

Мегаманьяк
***********
Group: Металариец
Posts: 1,565
Releases: 569
From: Саранск
On Forums: 11 years 6 months
Thanks: 5761 time(s)
Russian Federation


(IMG:https://metalarea.org/images/audiocovers/2018_Oct/acov_tid311381_thumb.jpg)

*Artist: Żywia
*Album: Słowiańska Wiara
*Year: 2014
*Genre: Folk/Pagan Metal
*Country: Poland (IMG:https://metalarea.org/forum/style_images/flags/Poland.png)
*Format: mp3@CBR192kbps
*Size: 56MB

Tracklist:
01. Pieśń Perunowa
02. Bramy Nawii
03. Wilcza Pani
04. Kupała, Kupała
05. Pieśń Plonowa
06. Mokosz
07. Ostatni Żerca
08. Modlitwa Wojownika
09. Kobieta-Drzewo
10. Wataha
******************************
Total playing time: 40:43



Technical info
(IMG:https://metalarea.org/images/spectrogram/2018_Oct/3874f5a0a2d093a89e2949bd3499ac85.png)
Input File: 06. Mokosz.mp3
Channels : 2
Sample Rate : 44100
Precision : 16-bit
Duration : 00:02:46.49 = 7342121 samples = 12486.6 CDDA sectors
File Size : 4.13M
Bit Rate : 198k
Sample Encoding: MPEG audio (layer I, II or III)
Comments :
Title=Mokosz
Artist=Żywia
Album=Słowiańska Wiara
Tracknumber=06
Year=2014
Genre=Folk / Pagan Metal



Register


Go to the top of the page
  Insert nick Quick quote
+Quote Post
 
Start new topic
Replies (1 - 2)
post Oct 5 2018, 19:59:11
Post #2

Это просто место… где все подошло к концу.
**************
Group: Металариец
Posts: 6,711
Releases: 0
From: Страны Мамонтов
On Forums: 15 years 9 months
Thanks: 2680 time(s)
Antarctica


Как-то не задорно совсем (IMG:style_emoticons/default/6.gif)
Go to the top of the page
  Insert nick Quick quote
+Quote Post
post Nov 8 2022, 21:36:27
Post #3

Литр
*
Group: Подсевший
Posts: 95
Releases: 0
On Forums: 13 years 8 months
Thanks: 34 time(s)
Russian Federation


1 Pieśń Perunowa
2 Wilcza Pani
3 Kupała, Kupała
4 Pieśń Plonowa
5 Mokosz
6 Ostatni Żerca
7 Modlitwa Wojownika
8 Kobieta-Drzewo
9 Wataha
10 Bramy Nawii

Корректный треклист, 10 трек кавер на Конквисту - Bramy Valhalli
Go to the top of the page
  Insert nick Quick quote
+Quote Post

Reply to this topicStart new topic
1 User(s) are reading this topic (1 Guests and 0 Anonymous Users)
0 Members:

 



- Lo-Fi Version Support form
Copyrights and abuse reports form
Time is now: 27th November 2022 - 02:50:14