Welcome Guest ( Log In | Register )

Объявления

* gmail.com упорно продолжает считать почту с нас "unsolicited" и отбивает в том числе и письма активации, поэтому просьба использовать альтернативные почтовые ящики.
------------
* gmail.com continues reject all mail from us as "unsolicited" (activation mails too) therefore please use alternate mail servers.

> И неформату есть предел.

Рэп/хип-хоп/шансон/поп удаляются. Для них есть свои порталы.

> Author & Punisher - Beastland (2018), Industrial/Metal
post Oct 6 2018, 16:49:10
Post #1

####!111
**************
Group: Металариец
Posts: 4,766
Releases: 146
From: The Mountain Of DOOM
On Forums: 16 years 7 months
Thanks: 7024 time(s)
Russian Federation


(IMG:http://metalarea.org/images/audiocovers/2018_Oct/acov_tid311466_thumb.jpg)

*Artist: Author & Punisher
*Album: Beastland
*Year: 2018
*Genre: Industrial/Metal
*Country: United States (IMG:http://metalarea.org/forum/style_images/flags/United%20States.png)
*Format: mp3@CBR320kbps
*Size: 86MB

Tracklist:
1. Pharmacide 04:29
2. Nihil Strength 03:36
3. Ode to Bedlam 03:28
4. The Speaker is Systematically Blown 04:14
5. Nazarene 04:09
6. Apparition 04:38
7. Night Terror 06:05
8. Beastland 06:03
******************************
Total playing time: 36:42


(IMG:http://metalarea.org/images/youtube.png)

Extended info
Бодрее чем Melk en Honing (2015). Звук жирный, в отличие от Pressure Mine (2017).


Technical info
(IMG:http://metalarea.org/images/spectrogram/2018_Oct/223aa281ce5474b89ce3c788f5bdf869.png)
Input File: 03 Ode to Bedlam.mp3
Channels : 2
Sample Rate : 44100
Precision : 16-bit
Duration : 00:03:28.89 = 9212005 samples = 15666.7 CDDA sectors
File Size : 8.48M
Bit Rate : 325k
Sample Encoding: MPEG audio (layer I, II or III)
Comments :
Title=Ode to Bedlam
Artist=Author & Punisher
Album=Beastland
Tracknumber=3
Year=2018
Genre=Industrial



Register


Go to the top of the page
  Insert nick Quick quote
+Quote Post
 
Start new topic
Replies (1 - 2)
post Oct 17 2018, 20:18:06
Post #2

𝕻𝕬𝕹𝕬𝕮𝕰𝕬
**********
Group: Металариец
Posts: 1,242
Releases: 746
On Forums: 11 years 11 months
Thanks: 16108 time(s)
Unknown




Thanks:
(1) boby9052,
Go to the top of the page
  Insert nick Quick quote
+Quote Post
post Oct 18 2018, 08:30:20
Post #3

####!111
**************
Group: Металариец
Posts: 4,766
Releases: 146
From: The Mountain Of DOOM
On Forums: 16 years 7 months
Thanks: 7024 time(s)
Russian Federation


Дык в шапке ссылка на это же видео
Go to the top of the page
  Insert nick Quick quote
+Quote Post

Reply to this topicStart new topic
1 User(s) are reading this topic (1 Guests and 0 Anonymous Users)
0 Members:

 



- Lo-Fi Version Support form
Copyrights and abuse reports form
Time is now: 26th May 2024 - 19:43:25