Welcome Guest ( Log In | Register )

> Правила / Rules

Тут только для чтения лежат низкобитрейтные (<192kbps) релизы, для которых есть аналоги в высокобитрейтных форумах.

Here goes (and stand in read only mode) low bitrate releases (<192kbps) which were already replaced by high bitrate releases in corresponding forums.

> Vanhelgd - Deimos Sanktuarium (2018), Death Metal (D)
post Oct 7 2018, 18:56:13
Post #1

Правь статус, ####!111
**************
Group: Металариец
Posts: 4,158
Releases: 3800
From: Одесса
On Forums: 13 years 1 month
Thanks: 41555 time(s)
Ukraine


(IMG:http://metalarea.org/images/audiocovers/2018_Oct/acov_tid311497_thumb.jpg)

*Artist: Vanhelgd
*Album: Deimos Sanktuarium
*Year: 2018
*Genre: Death Metal
*Country: Sweden (IMG:http://metalarea.org/forum/style_images/flags/Sweden.png)
*Format: mp3@CBR128kbps (IMG:http://metalarea.org/images/bit_low.gif)
*Size: 42MB

Tracklist:
1. A Plea for Divine Necromancy 04:11
2. Så förgås världens härlighet 05:34
3. Vi föddes i samma grav 06:38
4. Profaned is the Blood of the Covenant 05:34
5. The Ashes of Our Defeat 07:24
6. The Silent Observer 07:27
7. Här finns ingen nåd 07:27
******************************
Total playing time: 44:15



Extended info
Line - up:
Jimmy Johansson - Guitars, Vocals (ex-Blump, ex-Ceremonial Execution, ex-Bloodshed Nihil)
Mattias Frisk - Guitars, Vocals (The Jam Session, ex-Blump, ex-Ceremonial Execution)
Jonas Albrektsson - Bass (King of Asgard, Retaliation, ex-Indungeon, ex-Niden Div. 187, ex-Thy Primordial, ex-Bloodshed Nihil, ex-Carcaroht, ex-Ceremonial Execution, ex-Infernal Vengeance (live))
Mathias Westman - Drums (King of Asgard, ex-Souls of Emptiness, ex-Spiritus Sancti, ex-Throne of Heresy)

Guest/Session:
Thomas Sabbathi - Choirs (track 6) (Deadpulse, ex-Bokor, ex-Griftegård, ex-Plague Majestic, Year of the Goat, ex-Dear Mutant, ex-House of Aquarius)

(IMG:https://www.metal-archives.com/images/3/5/4/0/3540269135_photo.jpg?5856)


Technical info
(IMG:http://metalarea.org/images/spectrogram/2018_Oct/9cd6cb32042039dd396086759dcd2997.png)
Input File: 07 - Här finns ingen nåd.mp3
Channels : 2
Sample Rate : 44100
Precision : 16-bit
Duration : 00:07:27.50 = 19734794 samples = 33562.6 CDDA sectors
File Size : 7.16M
Bit Rate : 128k
Sample Encoding: MPEG audio (layer I, II or III)
Comments :
Title=Här finns ingen nåd
Artist=Vanhelgd
Album=Deimos Sanktuarium
Tracknumber=7
Year=2018
Genre=22



Register


Go to the top of the page
  Insert nick Quick quote
+Quote Post
 
Start new topic
Replies (1 - 5)
post Oct 8 2018, 07:28:55
Post #2

Crush! Kill! Destroy!
**************
Group: Металариец
Posts: 5,685
Releases: 15
From: Kaliningrad
On Forums: 13 years 8 months
Thanks: 5405 time(s)
Russian Federation


Собственно - в список "Лучшие альбомы года" отправляется этот релиз.


Go to the top of the page
  Insert nick Quick quote
+Quote Post
post Oct 8 2018, 11:44:44
Post #3

ME[ta]LLOMAN
**************
Group: Металариец
Posts: 5,009
Releases: 3
From: Avdeyevka
On Forums: 15 years 3 months
Thanks: 2060 time(s)
Honduras


превосходная атмосфэрра безисходности (IMG:style_emoticons/default/headcrab.png)
нарядненько и бархатно заходит на средних темппах (IMG:style_emoticons/default/9.gif)


Go to the top of the page
  Insert nick Quick quote
+Quote Post
post Oct 8 2018, 16:50:03
Post #4

MDM-Thrash Metal
**************
Group: Металариец
Posts: 10,481
Releases: 1257
From: Одесса
On Forums: 13 years 11 months
Thanks: 30638 time(s)
Ukraine


И шо, без участия Рогги обошлось?
По сабжу - среднетэмповая, неторопливо-размеренная дезяра.
Go to the top of the page
  Insert nick Quick quote
+Quote Post
post Oct 9 2018, 00:02:41
Post #5

Шесть Литров
******
Group: Металариец
Posts: 608
Releases: 1
From: АР Крым, Симферополь
On Forums: 13 years 3 months
Thanks: 313 time(s)
Russian Federation


ЦИТАТА(Andrew @ 8th October 2018 - 18:50:03) *
И шо, без участия Рогги обошлось?


Andrew, дык Рогга то никогда и ни принимал участия в данном проекте, как в качестве участника группы так и сессионщика, здесь более атмосферный и придумлённый стафф, а Рогга ж по бронебойщине среднетемповой классической OSDM в основном выступает без особой атмосферы и замедлений.
Go to the top of the page
  Insert nick Quick quote
+Quote Post
post Oct 12 2018, 07:59:17
Post #6

Аннигилятор пивА
Group Icon
Group: V.I.P
Posts: 52,360
Releases: 16550
From: Koenigsberg - TILZIT
On Forums: 15 years 1 month
Thanks: 367914 time(s)
Russian Federation


Пока свежак, неизвестно скока в модерке пролежит (IMG:style_emoticons/default/crazy.gif)

103/320 (IMG:style_emoticons/default/bye.gif)
Register

Register

Register

Go to the top of the page
  Insert nick Quick quote
+Quote Post

Причина закрытия (Borderline1991 12-10-2018): Vanhelgd - Deimos Sanktuarium (2018)
Closed TopicStart new topic
2 User(s) are reading this topic (2 Guests and 0 Anonymous Users)
0 Members:

 



- Lo-Fi Version Support form
Copyrights and abuse reports form
Time is now: 24th July 2021 - 08:44:10