Welcome Guest ( Log In | Register )

 
Reply to this topicStart new topic
> SMHT - Seimugenhoutai (2015), Avant-Garde/Technical Death Metal/Mathcore
post Oct 8 2018, 18:29:16
Post #1

Аннигилятор пивА
Group Icon
Group: V.I.P
Posts: 52,383
Releases: 16545
From: Koenigsberg - TILZIT
On Forums: 16 years 3 months
Thanks: 369890 time(s)
Russian Federation


(IMG:https://metalarea.org/images/audiocovers/2018_Oct/acov_tid311523_thumb.jpg)

*Artist: SMHT
*Album: Seimugenhoutai
*Year: 2015
*Genre: Avant-Garde/Technical Death Metal/Mathcore
*Country: Russian Federation (IMG:https://metalarea.org/forum/style_images/flags/Russian%20Federation.png)
*Format: mp3@CBR192kbps
*Size: 71MB

Tracklist:
1. 点 (Dot) 03:26
2. 線 (Line) 01:26
3. 正方形 (Square) 04:24
4. 立方体 (Cube) 02:40
5. 正十六胞体 (16-Cell) 02:47
6. 正二十四胞体 (24-Cell) 03:49
7. 正百二十胞体 (120-Cell) 03:57
8. 正六百胞体 (600-Cell) 01:35
9. 大丈夫、もう終り (Don'T Worry, It's Over Now) 06:15
******************************
Total playing time: 30:19




Extended info


Technical info
(IMG:https://metalarea.org/images/spectrogram/2018_Oct/a9a29ace631e2ce9f654b5f9ebcac2bc.png)
Input File: 02. 線.mp3
Channels : 2
Sample Rate : 44100
Precision : 16-bit
Duration : 00:01:26.68 = 3822676 samples = 6501.15 CDDA sectors
File Size : 5.87M
Bit Rate : 542k
Sample Encoding: MPEG audio (layer I, II or III)
Comments :
Title=線
Artist=正∞胞体
Album=正∞胞体
Tracknumber=02/09
Year=2015
Genre=Mathcore/Tech Death/Experimental



Register


Go to the top of the page
  Insert nick Quick quote
+Quote Post

Reply to this topicStart new topic
1 User(s) are reading this topic (1 Guests and 0 Anonymous Users)
0 Members:

 



- Lo-Fi Version Support form
Copyrights and abuse reports form
Time is now: 25th September 2022 - 06:55:30