Welcome Guest ( Log In | Register )

> Orkan - Crimson Canvas (2012), Black/Thrash Metal
post Oct 9 2018, 08:09:52
Post #1

Шесть Литров
******
Group: Металариец
Posts: 524
Releases: 21
From: Подольск
On Forums: 12 years 6 months
Thanks: 830 time(s)
Russian Federation


(IMG:http://metalarea.org/images/audiocovers/2018_Oct/acov_tid311536_thumb.jpg)

*Artist: Orkan
*Album: Crimson Canvas
*Year: 2012
*Genre: Black/Thrash Metal
*Country: Norway (IMG:http://metalarea.org/forum/style_images/flags/Norway.png)
*Format: mp3@CBR320kbps
*Size: 93MB

Tracklist:
1. Wall of Sacrifice 05:57
2. Unspoken Words 04:44
3. Circus Fatale 05:19
4. What Darkness Brings 04:00
5. Interlude: Souls of the Dead 01:41
6. Deus Vicit 06:02
7. Crimson Canvas 04:48
8. Fall from Below 06:37
******************************
Total playing time: 39:08

(IMG:http://metalarea.org/images/youtube.png)

Preview 3

Extended info
Line-up:
Einar Fjelldal - vocals
Gjermund Fredheim - guitars
Rune Nesse - drums
Sindre Hillesdal - bass


Technical info
(IMG:http://metalarea.org/images/spectrogram/2018_Oct/8ce87db04737be1fe8364ad953c6b2fd.png)
Input File: 01. Wall Of Sacrifice.mp3
Channels : 2
Sample Rate : 44100
Precision : 16-bit
Duration : 00:05:57.33 = 15758033 samples = 26799.4 CDDA sectors
File Size : 14.4M
Bit Rate : 323k
Sample Encoding: MPEG audio (layer I, II or III)
Comments :
Title=Wall Of Sacrifice
Artist=Orkan
Album=Crimson Canvas
Tracknumber=1
Year=2012
Genre=Black Metal
Discnumber=1



Register


Go to the top of the page
  Insert nick Quick quote
+Quote Post
 
Start new topic
Replies (1 - 1)
post Oct 9 2018, 22:33:56
Post #2

Три Литра
***
Group: Завсегдатай
Posts: 233
Releases: 0
On Forums: 3 years 4 months
Thanks: 16 time(s)
Poland


Thank you so much <3


Thanks:
Go to the top of the page
  Insert nick Quick quote
+Quote Post

Reply to this topicStart new topic
2 User(s) are reading this topic (2 Guests and 0 Anonymous Users)
0 Members:

 



- Lo-Fi Version Support form
Copyrights and abuse reports form
Time is now: 5th December 2021 - 02:28:15