Welcome Guest ( Log In | Register )

> Beyond Belief - Promo '95 [demo] (1995), Death Metal (D)
post Oct 11 2018, 13:44:56
Post #1

Подвал
**************
Group: Металариец
Posts: 16,498
Releases: 9432
From: Far East (Khabarovsk)
On Forums: 12 years 10 months
Thanks: 107704 time(s)
Russian Federation


(IMG:http://metalarea.org/images/audiocovers/2018_Oct/acov_tid311619_thumb.JPG)

*Artist: Beyond Belief
*Album: Promo '95 [demo]
*Year: 1995
*Genre: Death Metal
*Country: Netherlands (IMG:http://metalarea.org/forum/style_images/flags/Netherlands.png)
*Format: mp3@CBR192kbps
*Size: 28MB

Tracklist:
1. Rave The Abyss 04:04
2. Tyrants Of The Sun 05:59
3. The Burning Of Redlands 03:40
4. Cursed 07:21
******************************
Total playing time: 21:04


(IMG:http://metalarea.org/images/myspace.png)

Technical info
(IMG:http://metalarea.org/images/spectrogram/2018_Oct/cfbb3419d638120dd09b34f6e8996084.png)
Input File: 01-Rave The Abyss.mp3
Channels : 2
Sample Rate : 44100
Precision : 16-bit
Duration : 00:04:04.57 = 10785537 samples = 18342.8 CDDA sectors
File Size : 5.87M
Bit Rate : 192k
Sample Encoding: MPEG audio (layer I, II or III)
Comments :
Title=Rave The Abyss
Artist=Beyond Belief (Hol)
Album=Promo '95
Tracknumber=01
Year=1995
Genre=Death Metal



Register


Go to the top of the page
  Insert nick Quick quote
+Quote Post
 
Start new topic
Replies (1 - 1)
post Nov 25 2021, 08:44:34
Post #2

Forever Underground
**************
Group: Металариец
Posts: 9,148
Releases: 0
On Forums: 6 years 7 months
Thanks: 12851 time(s)
Unknown


New link, same properties (genre: death/doom (IMG:style_emoticons/default/metaler.gif) )
Register

Do someone have this "Promo-tape 1994" ?? https://www.discogs.com/release/18721717-Be...f-Promo-Demo-94 (IMG:style_emoticons/default/pray.gif)


Thanks:
Go to the top of the page
  Insert nick Quick quote
+Quote Post

Reply to this topicStart new topic
2 User(s) are reading this topic (2 Guests and 0 Anonymous Users)
0 Members:

 



- Lo-Fi Version Support form
Copyrights and abuse reports form
Time is now: 29th November 2021 - 07:54:52