Welcome Guest ( Log In | Register )

Объявления

* gmail.com упорно продолжает считать почту с нас "unsolicited" и отбивает в том числе и письма активации, поэтому просьба использовать альтернативные почтовые ящики.
------------
* gmail.com continues reject all mail from us as "unsolicited" (activation mails too) therefore please use alternate mail servers.
> Delirious - Promo 1991 [demo] (1991), Death/Thrash Metal
post Oct 12 2018, 11:31:53
Post #1

Подвал
**************
Group: Металариец
Posts: 20,393
Releases: 11711
From: Far East (Khabarovsk)
On Forums: 15 years 4 months
Thanks: 139173 time(s)
Russian Federation


(IMG:http://metalarea.org/images/audiocovers/2018_Oct/acov_tid311686_thumb.JPG)

*Artist: Delirious
*Album: Promo 1991 [demo]
*Year: 1991
*Genre: Death/Thrash Metal
*Country: Netherlands (IMG:http://metalarea.org/forum/style_images/flags/Netherlands.png)
*Format: mp3@CBR192kbps
*Size: 35MB

Tracklist:
1. Transplantation Of Souls 06:29
2. Altar Of Evil 06:06
3. Spiritual Healing (Death cover) 07:45
4. Romancing The Grave 05:28
******************************
Total playing time: 25:48

Extended info
Rehearsal recording.


Technical info
(IMG:http://metalarea.org/images/spectrogram/2018_Oct/0774239103cd8a7724ebf10f39d24836.png)
Input File: 01-Transplantation of Souls.mp3
Channels : 2
Sample Rate : 44100
Precision : 16-bit
Duration : 00:06:29.45 = 17174745 samples = 29208.8 CDDA sectors
File Size : 9.35M
Bit Rate : 192k
Sample Encoding: MPEG audio (layer I, II or III)
Comments :
Title=Transplantation of Souls
Artist=Delirious (Hol)
Album=Promo 1991
Tracknumber=01
Year=1991
Genre=Death Metal



Register


Go to the top of the page
  Insert nick Quick quote
+Quote Post
 
Start new topic
Replies (1 - 1)
post Dec 22 2022, 12:20:52
Post #2

Подвал
**************
Group: Металариец
Posts: 20,393
Releases: 11711
From: Far East (Khabarovsk)
On Forums: 15 years 4 months
Thanks: 139173 time(s)
Russian Federation


new link:
Register


Go to the top of the page
  Insert nick Quick quote
+Quote Post

Reply to this topicStart new topic
1 User(s) are reading this topic (1 Guests and 0 Anonymous Users)
0 Members:

 



- Lo-Fi Version Support form
Copyrights and abuse reports form
Time is now: 29th May 2024 - 10:10:26