Welcome Guest ( Log In | Register )

> Black Lotus - Sons Of Saturn (2018), Heavy/Doom Metal (D4)
post Oct 19 2018, 06:10:12
Post #1

Аннигилятор пивА
Group Icon
Group: V.I.P
Posts: 52,360
Releases: 16550
From: Koenigsberg - TILZIT
On Forums: 14 years 1 month
Thanks: 365638 time(s)
Russian Federation


(IMG:https://metalarea.org/images/audiocovers/2018_Oct/acov_tid311894_thumb.jpg)

*Artist: Black Lotus
*Album: Sons Of Saturn
*Year: 2018
*Genre: Heavy/Doom Metal
*Country: Spain (IMG:https://metalarea.org/forum/style_images/flags/Spain.png)
*Format: mp3@CBR320kbps
*Size: 106MB

Tracklist:
01. Kings
02. The Sandstorm
03. The Pyre - Intro
04. Protective Fire
05. Taurobolium
06. Sons of Saturn
07. The Swamp
08. Return to Erebus - Closing
******************************
Total playing time: 44:56




Extended info
Charlie Gotaskull : Rhythm & Lead guitars
Crisitan Vil: Bass Guitar, Vocals
Caio Pastore: Rhythm & Lead guitars
Hug Ballesta: Drums, Vocals



Technical info
(IMG:https://metalarea.org/images/spectrogram/2018_Oct/db7a32c1dc9e368e58e888e0da3bb52c.png)
Input File: 04 Protective Fire.mp3
Channels : 2
Sample Rate : 44100
Precision : 16-bit
Duration : 00:04:56.82 = 13089850 samples = 22261.6 CDDA sectors
File Size : 12.2M
Bit Rate : 329k
Sample Encoding: MPEG audio (layer I, II or III)
Comments :
Title=Protective Fire
Artist=Black Lotus
Album=Sons of Saturn
Tracknumber=4/8
Year=2018
Genre=Heavy Metal
Discnumber=1/1



Register


Go to the top of the page
  Insert nick Quick quote
+Quote Post
 
Start new topic
Replies (1 - 4)
post Oct 21 2018, 07:10:45
Post #2

Аннигилятор пивА
Group Icon
Group: V.I.P
Posts: 52,360
Releases: 16550
From: Koenigsberg - TILZIT
On Forums: 14 years 1 month
Thanks: 365638 time(s)
Russian Federation


MIRROR
Register


Thanks:
Go to the top of the page
  Insert nick Quick quote
+Quote Post
post Dec 8 2018, 22:20:46
Post #3

Крещенный в алкоголе
***********
Group: Металариец
Posts: 1,587
Releases: 30
From: Sea of darkness
On Forums: 14 years 9 months
Thanks: 712 time(s)
Israel


Начался альбом довольно уныло, однако уже в середине превой песни вдруг попёрли какие то апокалиптические тремоло, вылезла годная мелодика, а под конец нехило вдарило отличным соляком прямо в челюсть. Так, собственно, весь альбом и идет: немного занудные риффы(впрочем, компенсируемые драйвовой подачей), переходящие в очень вкусную мелодичную кульминацию. Соло ни разу не разочаровали. Вокал хороший, мощный и, самое главное, не старперский. Очень подходит для сего эпично-апокалиптического полотна.
Из всего альбома сильно выделяется Protective Fire с ощутимым перевесом в стонир/дум, в остальных же треках нет ни малейшего намека на укур.

Благословляю альбомчик и залившего, и со спокойной душой кладу себе в коллекцию.


Thanks:
(1) Lux,
Go to the top of the page
  Insert nick Quick quote
+Quote Post
post Dec 9 2018, 01:04:55
Post #4
BAN
Banned till
Jul 16 2020, 15:35:27



ЦИТАТА(Hellraizer @ Dec 9 2018, 00:20:46) *
Начался альбом довольно уныло, однако уже в середине превой песни вдруг попёрли какие то апокалиптические тремоло, вылезла годная мелодика, а под конец нехило вдарило отличным соляком прямо в челюсть. Так, собственно, весь альбом и идет: немного занудные риффы(впрочем, компенсируемые драйвовой подачей), переходящие в очень вкусную мелодичную кульминацию. Соло ни разу не разочаровали. Вокал хороший, мощный и, самое главное, не старперский. Очень подходит для сего эпично-апокалиптического полотна.
Из всего альбома сильно выделяется Protective Fire с ощутимым перевесом в стонир/дум, в остальных же треках нет ни малейшего намека на укур.

Благословляю альбомчик и залившего, и со спокойной душой кладу себе в коллекцию.

Ты пытаешься доказать, что на безрыбье и рак - рыба. Но твои потуги бессильны - это не так
Go to the top of the page
  Insert nick Quick quote
+Quote Post
post Dec 9 2018, 05:47:29
Post #5

Крещенный в алкоголе
***********
Group: Металариец
Posts: 1,587
Releases: 30
From: Sea of darkness
On Forums: 14 years 9 months
Thanks: 712 time(s)
Israel


avather,

Да я, в общем то, просто свои впечатления написал. Чего мне кому то доказывать, вроде все взрослые люди сидят и сами все знают и так.
Go to the top of the page
  Insert nick Quick quote
+Quote Post

Reply to this topicStart new topic
2 User(s) are reading this topic (2 Guests and 0 Anonymous Users)
0 Members:

 



- Lo-Fi Version Support form
Copyrights and abuse reports form
Time is now: 16th July 2020 - 03:17:02