Welcome Guest ( Log In | Register )

Объявления

* gmail.com упорно продолжает считать почту с нас "unsolicited" и отбивает в том числе и письма активации, поэтому просьба использовать альтернативные почтовые ящики.
------------
* gmail.com continues reject all mail from us as "unsolicited" (activation mails too) therefore please use alternate mail servers.
> Lifelost - Dialogues From Beyond [ep] (2018), Occult Black Metal
post Oct 27 2018, 19:02:15
Post #1

Правь статус, ####!111
**************
Group: Металариец
Posts: 35,940
Releases: 26783
From: Г.Харьков
On Forums: 12 years 2 weeks
Thanks: 580987 time(s)
Ukraine


(IMG:http://metalarea.org/images/audiocovers/2018_Oct/acov_tid312243_thumb.jpg)

*Artist: Lifelost
*Album: Dialogues From Beyond [ep]
*Year: 2018
*Genre: Occult Black Metal
*Country: Spain (IMG:http://metalarea.org/forum/style_images/flags/Spain.png)
*Format: mp3@CBR320kbps
*Size: 53MB

Tracklist:
1. Malign Emanatio 04:19
2. Sepulchral Vault 04:16
3. Released From Life 04:07
4. Metanoia 05:32
5. Incorporeal Gate 05:01
******************************
Total playing time: 23:15




Extended info
PHLEGETON: All instruments, lyrics and voices


Technical info
(IMG:http://metalarea.org/images/spectrogram/2018_Oct/d66fab6ad0a744bb1b4e55464e74218b.png)
Input File: 04 - Metanoia.mp3
Channels : 2
Sample Rate : 44100
Precision : 16-bit
Duration : 00:05:32.07 = 14644419 samples = 24905.5 CDDA sectors
File Size : 13.3M
Bit Rate : 320k
Sample Encoding: MPEG audio (layer I, II or III)
Comments :
Title=Metanoia
Artist=Lifelost
Album=Dialogues from Beyond
Tracknumber=4
Year=2018
Genre=Black Metal



Register


Go to the top of the page
  Insert nick Quick quote
+Quote Post
 
Start new topic
Replies (1 - 3)
post Oct 29 2018, 17:18:32
Post #2

Common dweller of hell
**************
Group: Металариец
Posts: 5,396
Releases: 12
From: Dnipro
On Forums: 15 years 10 months
Thanks: 2194 time(s)
Ukraine


Цепануло неожиданно, годнота. (IMG:style_emoticons/default/20.gif)


Thanks:
(1) Occultas,
Go to the top of the page
  Insert nick Quick quote
+Quote Post
post Oct 30 2018, 02:25:09
Post #3

Шесть Литров
******
Group: Металариец
Posts: 584
Releases: 0
On Forums: 15 years 4 months
Thanks: 446 time(s)
Brazil


Register


Go to the top of the page
  Insert nick Quick quote
+Quote Post
post Jun 22 2021, 18:53:21
Post #4

Black is beautiful
***********
Group: Металариец
Posts: 1,985
Releases: 4
On Forums: 12 years 2 months
Thanks: 445 time(s)
Unknown


Good occult ritual BM
(IMG:style_emoticons/default/true_black.gif) (IMG:style_emoticons/default/true_black.gif)


Thanks:
(1) Occultas,
Go to the top of the page
  Insert nick Quick quote
+Quote Post

Reply to this topicStart new topic
1 User(s) are reading this topic (1 Guests and 0 Anonymous Users)
0 Members:

 



- Lo-Fi Version Support form
Copyrights and abuse reports form
Time is now: 25th May 2024 - 19:24:48