Welcome Guest ( Log In | Register )

> Ignis Noctem - Blood Moon Ritual (2018), Atmospheric Black Metal (D8)
post Nov 1 2018, 08:26:43
Post #1

Аннигилятор пивА
Group Icon
Group: V.I.P
Posts: 52,360
Releases: 16550
From: Koenigsberg - TILZIT
On Forums: 15 years 5 months
Thanks: 368369 time(s)
Russian Federation


(IMG:https://metalarea.org/images/audiocovers/2018_Nov/acov_tid312452_thumb.jpg)

*Artist: Ignis Noctem
*Album: Blood Moon Ritual
*Year: 2018
*Genre: Atmospheric Black Metal
*Country: United States (IMG:https://metalarea.org/forum/style_images/flags/United%20States.png)
*Format: mp3@CBR320kbps
*Size: 70MB

Tracklist:
01. Intro
02. Darkness Portrayed
03. Blood Moon Ritual
04. Impure Existence
05. Gloomy Darkness
06. Winds Of Sorrow
07. Desolacion
08. Outro
******************************
Total playing time: 29:52




Extended info
Lord Aastheroth - vox, guitarra
Lord Verrine - bass
Drum Slicer - drums


Technical info
(IMG:https://metalarea.org/images/spectrogram/2018_Nov/43e5dea9924148b8330ac3cc8b94894d.png)
Input File: 02. Darkness Portrayed.mp3
Channels : 2
Sample Rate : 44100
Precision : 16-bit
Duration : 00:05:04.24 = 13417072 samples = 22818.1 CDDA sectors
File Size : 12.5M
Bit Rate : 330k
Sample Encoding: MPEG audio (layer I, II or III)
Comments :
Title=Darkness Portrayed
Artist=Ignis Noctem
Album=Blood Moon Ritual
Tracknumber=2/8
Year=2018
Genre=Black Metal
Discnumber=1/1



Register


Go to the top of the page
  Insert nick Quick quote
+Quote Post
 
Start new topic
Replies (1 - 2)
post Nov 2 2018, 16:49:37
Post #2

Common dweller of hell
**************
Group: Металариец
Posts: 4,069
Releases: 12
From: Dnipro
On Forums: 13 years 3 months
Thanks: 1586 time(s)
Ukraine


Суговые дятеньки американсы не играйте позалуйста Black Metal (IMG:style_emoticons/default/15.gif)


Thanks:
(1) Ildjarn,
Go to the top of the page
  Insert nick Quick quote
+Quote Post
post Jul 23 2021, 22:05:36
Post #3

Пять Литров
*****
Group: Металариец
Posts: 474
Releases: 0
On Forums: 5 years 3 months
Thanks: 40 time(s)
Unknown


Oh my god, is that a cheap cover photo. The little man was simply copied in there.
Go to the top of the page
  Insert nick Quick quote
+Quote Post

Reply to this topicStart new topic
1 User(s) are reading this topic (1 Guests and 0 Anonymous Users)
0 Members:

 



- Lo-Fi Version Support form
Copyrights and abuse reports form
Time is now: 28th October 2021 - 22:55:42