Welcome Guest ( Log In | Register )

> Totenmesse - To (2018), Black/Death Metal
post Nov 2 2018, 05:18:50
Post #1

Правь статус, ####!111
**************
Group: Металариец
Posts: 21,964
Releases: 15155
From: Г.Харьков
On Forums: 8 years 3 weeks
Thanks: 275115 time(s)
Unknown


(IMG:http://metalarea.org/images/audiocovers/2018_Nov/acov_tid312499_thumb.jpg)

*Artist: Totenmesse
*Album: To
*Year: 2018
*Genre: Black/Death Metal
*Country: Poland (IMG:http://metalarea.org/forum/style_images/flags/Poland.png)
*Format: mp3@CBR320kbps
*Size: 100MB

Tracklist:
1. Pusty Dzwon 05:28
2. Istne Gówno Dusza Cuchnie 05:16
3. Zamarzło 04:25
4. 21st Century Schizoid Man 02:07
5. Kaiser Tot 06:45
6. Łuna 07:18
7. Cienie Wzbijane Palcami 04:26
8. To 06:30
******************************
Total playing time: 42:15




Extended info
Stawrogin
Rzulty
Void
Bartollo
Priest


Technical info
(IMG:http://metalarea.org/images/spectrogram/2018_Nov/c5bc3c3166d1e36e02211622d15519b1.png)
Input File: 03.Zamarzlo.mp3
Channels : 2
Sample Rate : 44100
Precision : 16-bit
Duration : 00:04:25.18 = 11694262 samples = 19888.2 CDDA sectors
File Size : 11.0M
Bit Rate : 333k
Sample Encoding: MPEG audio (layer I, II or III)
Comments :
Title=Zamarzlo
Artist=Totenmesse
Album=To
Tracknumber=3
Year=2018
Genre=Death Metal



Register


Go to the top of the page
  Insert nick Quick quote
+Quote Post
 
Start new topic
Replies (1 - 5)
post Nov 2 2018, 06:38:09
Post #2

Правь статус, ####!111
**************
Group: Металариец
Posts: 21,964
Releases: 15155
From: Г.Харьков
On Forums: 8 years 3 weeks
Thanks: 275115 time(s)
Unknown


Cloud Mail 320
Register


Go to the top of the page
  Insert nick Quick quote
+Quote Post
post Nov 2 2018, 08:21:25
Post #3

Три Литра
***
Group: Завсегдатай
Posts: 273
Releases: 0
From: Россия
On Forums: 8 years 3 months
Thanks: 90 time(s)
Russian Federation


Istne Gówno Dusza Cuchnie (IMG:style_emoticons/default/1488.gif)


Thanks:
Go to the top of the page
  Insert nick Quick quote
+Quote Post
post Nov 3 2018, 00:12:52
Post #4

Group: Дух
Posts: 2
Releases: 0
On Forums: 2 years 11 months
Thanks: 0 time(s)
Poland


Istne Gówno Dusza Cuchnie (IMG:style_emoticons/default/m1234.gif)
Go to the top of the page
  Insert nick Quick quote
+Quote Post
post Nov 5 2018, 08:55:11
Post #5

my church is black
*********
Group: Металариец
Posts: 958
Releases: 3
On Forums: 2 years 11 months
Thanks: 607 time(s)
Cape Verde


а альбом-то совсем не Gówno
Go to the top of the page
  Insert nick Quick quote
+Quote Post
post Dec 30 2018, 09:26:58
Post #6

стакан. просто стакан.
**************
Group: Металариец
Posts: 3,764
Releases: 0
On Forums: 4 years 4 months
Thanks: 2453 time(s)
Unknown


только что наткнулся на инфу, что это проект участников Massemord и Odraza.
так что забираю не слушая.
Go to the top of the page
  Insert nick Quick quote
+Quote Post

Reply to this topicStart new topic
2 User(s) are reading this topic (2 Guests and 0 Anonymous Users)
0 Members:

 



- Lo-Fi Version Support form
Copyrights and abuse reports form
Time is now: 5th June 2020 - 21:07:18