Welcome Guest ( Log In | Register )

> Iron Heade - Enter The Dungeon (2018), Heavy Metal
post Nov 5 2018, 09:54:21
Post #1

Аннигилятор пивА
Group Icon
Group: V.I.P
Posts: 52,552
Releases: 16538
From: Koenigsberg - TILZIT
On Forums: 17 years 10 months
Thanks: 371791 time(s)
Russian Federation


(IMG:https://metalarea.org/images/audiocovers/2018_Nov/acov_tid312634_thumb.png)

*Artist: Iron Heade
*Album: Enter The Dungeon
*Year: 2018
*Genre: Heavy Metal
*Country: Chile (IMG:https://metalarea.org/forum/style_images/flags/Chile.png)
*Format: mp3@CBR320kbps
*Size: 90MB

Tracklist:
01. Gemini
02. At the Mountains of Madness
03. Vulture King
04. Demogorgon
05. Queen of Darkness
06. Call to Arms
07. Heroes
08. The Knight of the Black Rose
09. Crimson King
10. The Alchemist
11. The Cursed One
12. The Wrestler
******************************
Total playing time: 37:06

Extended info


Technical info
(IMG:https://metalarea.org/images/spectrogram/2018_Nov/0414525092fd770b31e4f9e56893eef0.png)
Input File: 02 At the Mountains of Madness.mp3
Channels : 2
Sample Rate : 44100
Precision : 16-bit
Duration : 00:03:11.60 = 8449340 samples = 14369.6 CDDA sectors
File Size : 8.19M
Bit Rate : 342k
Sample Encoding: MPEG audio (layer I, II or III)
Comments :
Title=At the Mountains of Madness
Artist=Iron Heade
Album=Enter the Dungeon
Tracknumber=2/12
Year=2018
Genre=Heavy Metal
Discnumber=1/1



Register


Go to the top of the page
  Insert nick Quick quote
+Quote Post
 
Start new topic
Replies (1 - 3)
post Nov 5 2018, 13:35:04
Post #2

Аннигилятор пивА
Group Icon
Group: V.I.P
Posts: 52,552
Releases: 16538
From: Koenigsberg - TILZIT
On Forums: 17 years 10 months
Thanks: 371791 time(s)
Russian Federation


MIRROR
Register




Thanks:
(1) sergsazan,
Go to the top of the page
  Insert nick Quick quote
+Quote Post
post Nov 11 2018, 22:32:47
Post #3

Три Литра
***
Group: Завсегдатай
Posts: 251
Releases: 0
From: Odessa
On Forums: 16 years 2 months
Thanks: 55 time(s)
Ukraine


https://www.youtube.com/watch?v=Z3MBZjgHg8g
ничего интересного


Thanks:
(1) artscald,
Go to the top of the page
  Insert nick Quick quote
+Quote Post
post Sep 7 2022, 21:15:57    Сейчас играет: Re-up please ;-)
Post #4

Правь статус, ####!111
**************
Group: Металариец
Posts: 3,701
Releases: 0
From: Sofia
On Forums: 16 years 6 months
Thanks: 131 time(s)
Bulgaria


Re-up please (IMG:style_emoticons/default/pray.gif) (IMG:style_emoticons/default/pray.gif) (IMG:style_emoticons/default/pray.gif)
Go to the top of the page
  Insert nick Quick quote
+Quote Post

Reply to this topicStart new topic
1 User(s) are reading this topic (1 Guests and 0 Anonymous Users)
0 Members:

 



- Lo-Fi Version Support form
Copyrights and abuse reports form
Time is now: 14th April 2024 - 08:19:44