Welcome Guest ( Log In | Register )

> Apneuma - The Electric Hive (2018), Technical/Progressive Death Metal
post Nov 14 2018, 08:35:44
Post #1

Аннигилятор пивА
Group Icon
Group: V.I.P
Posts: 52,360
Releases: 16550
From: Koenigsberg - TILZIT
On Forums: 14 years 1 week
Thanks: 365295 time(s)
Russian Federation


(IMG:https://metalarea.org/images/audiocovers/2018_Nov/acov_tid312956_thumb.jpg)

*Artist: Apneuma
*Album: The Electric Hive
*Year: 2018
*Genre: Technical/Progressive Death Metal
*Country: Uruguay (IMG:https://metalarea.org/forum/style_images/flags/Uruguay.png)
*Format: mp3@CBR320kbps
*Size: 86MB

Tracklist:
1. Revenge 04:53
2. Flesh Breathing Machine 03:40
3. The Electric Hive 04:11
4. Heartmageddon 03:50
5. Pendulum 03:32
6. Alt36 04:01
7. Another Side 04:24
8. The Last Attempt 05:11
9. Iron Lion Zion 02:27
******************************
Total playing time: 36:09




Extended info
Gerardo Techera - Vocals (Licaón, ex-Buried by Hate, ex-Opus Gaia, ex-Reincarnation of Death)
Gabriel Ordeix - Guitar
Sebastian Castañares - Guitar
José Mansino - Drums
Vladimir Ramallo - Bass



Technical info
(IMG:https://metalarea.org/images/spectrogram/2018_Nov/bae307e078e7d99ff2af06ab06c6778b.png)
Input File: 03.The Electric Hive.mp3
Channels : 2
Sample Rate : 44100
Precision : 16-bit
Duration : 00:04:12.17 = 11120565 samples = 18912.5 CDDA sectors
File Size : 10.6M
Bit Rate : 336k
Sample Encoding: MPEG audio (layer I, II or III)
Comments :
Title=The Electric Hive
Artist=Apneuma
Album=The Electric Hive
Tracknumber=3
Year=2018
Genre=Death Metal



Register


Go to the top of the page
  Insert nick Quick quote
+Quote Post
 
Start new topic
Replies (1 - 6)
post Nov 14 2018, 10:23:38
Post #2

Аннигилятор пивА
Group Icon
Group: V.I.P
Posts: 52,360
Releases: 16550
From: Koenigsberg - TILZIT
On Forums: 14 years 1 week
Thanks: 365295 time(s)
Russian Federation


mirror
Register



Go to the top of the page
  Insert nick Quick quote
+Quote Post
post Nov 14 2018, 10:55:57
Post #3

Аннигилятор пивА
Group Icon
Group: V.I.P
Posts: 52,360
Releases: 16550
From: Koenigsberg - TILZIT
On Forums: 14 years 1 week
Thanks: 365295 time(s)
Russian Federation


ЦИТАТА(AHBAnep @ Nov 14 2018, 09:37:36) *
Уругвай

ну да (IMG:style_emoticons/default/1488.gif) пока оформлял в голове смешалось парагвай-уругвай
Go to the top of the page
  Insert nick Quick quote
+Quote Post
post Nov 14 2018, 12:09:48
Post #4

Три Литра
***
Group: Завсегдатай
Posts: 273
Releases: 0
From: Россия
On Forums: 8 years 3 months
Thanks: 90 time(s)
Russian Federation


ЦИТАТА(aesteticvice @ Nov 14 2018, 16:55:57) *
пока оформлял в голове смешалось парагвай-уругвай


Скорее,пока переливал,от страха не успеть,попутал уругвай-парагвай-мадагаскар


Thanks:
Go to the top of the page
  Insert nick Quick quote
+Quote Post
post Nov 14 2018, 12:14:47
Post #5

Правь статус, ####!111
**************
Group: Металариец
Posts: 46,493
Releases: 718
On Forums: 11 years 4 days
Thanks: 39033 time(s)
Russian Federation


Шо вы спорите, вы все неправы, вона на ваще стоит Берлин, Германия так штаааа (IMG:style_emoticons/default/14.gif)


Thanks:
Go to the top of the page
  Insert nick Quick quote
+Quote Post
post Nov 14 2018, 12:19:54
Post #6

Три Литра
***
Group: Завсегдатай
Posts: 299
Releases: 54
From: Rostov-on-Don, Russia
On Forums: 13 years 6 months
Thanks: 580 time(s)
Russian Federation


Да, да.... всё бы хорошо, но на Бандкампе стоит Берлин, Германия
Go to the top of the page
  Insert nick Quick quote
+Quote Post
post Nov 14 2018, 12:26:50
Post #7

Аннигилятор пивА
Group Icon
Group: V.I.P
Posts: 52,360
Releases: 16550
From: Koenigsberg - TILZIT
On Forums: 14 years 1 week
Thanks: 365295 time(s)
Russian Federation


ЦИТАТА(vosmidesijatye @ Nov 14 2018, 11:14:47) *
Шо вы спорите

ПРАСТИТЕ, а где вы спор усмотрели? один указал на ошибку, я поправил, третий, скриптовый тролль, как всегда пропукал о своем (IMG:style_emoticons/default/1488.gif)

ЦИТАТА(magikart @ Nov 14 2018, 11:19:54) *
Да, да.... всё бы хорошо, но на Бандкампе стоит Берлин, Германия

и кому верить? фейсбуку с оф сайтом или бендкампу? может они колония германии?
Go to the top of the page
  Insert nick Quick quote
+Quote Post

Reply to this topicStart new topic
1 User(s) are reading this topic (1 Guests and 0 Anonymous Users)
0 Members:

 



- Lo-Fi Version Support form
Copyrights and abuse reports form
Time is now: 5th June 2020 - 20:16:15