Welcome Guest ( Log In | Register )

> Puppet - Ignorant Immortals (2018), Progressive Metal/Rock
post Nov 15 2018, 10:30:40
Post #1

Аннигилятор пивА
Group Icon
Group: V.I.P
Posts: 52,360
Releases: 16550
From: Koenigsberg - TILZIT
On Forums: 14 years 3 days
Thanks: 365269 time(s)
Russian Federation


(IMG:https://metalarea.org/images/audiocovers/2018_Nov/acov_tid313016_thumb.jpg)

*Artist: Puppet
*Album: Ignorant Immortals
*Year: 2018
*Genre: Progressive Metal/Rock
*Country: Canada (IMG:https://metalarea.org/forum/style_images/flags/Canada.png)
*Format: mp3@CBR320kbps
*Size: 87MB

Tracklist:
1. Caveat 04:31
2. Amongst Thieves 04:59
3. Krom 03:37
4. Spiders 05:10
5. Obsidian 04:21
6. Circle 05:47
7. Invisible Hands 04:22
8. Shift-Phased 05:23
******************************
Total playing time: 38:10



Extended info
Drums: Victor Karwacki
Bass: Darren Zunde
Guitar/vocals: Jake Bartoli




Technical info
(IMG:https://metalarea.org/images/spectrogram/2018_Nov/cee4371951dea99d68fb22663314648a.png)
Input File: 02 - Amongst Thieves.mp3
Channels : 2
Sample Rate : 44100
Precision : 16-bit
Duration : 00:05:00.04 = 13231588 samples = 22502.7 CDDA sectors
File Size : 12.1M
Bit Rate : 322k
Sample Encoding: MPEG audio (layer I, II or III)
Comments :
Title=Amongst Thieves
Artist=Puppet
Album=Ignorant Immortals
Tracknumber=02
Year=2018
Genre=Progressive Metal



Register


Thanks:
(2) Mogozoz, Rosen,
Go to the top of the page
  Insert nick Quick quote
+Quote Post
 
Start new topic
Replies (1 - 2)
post Nov 16 2018, 05:09:07
Post #2

Три Литра
***
Group: Завсегдатай
Posts: 273
Releases: 0
From: Россия
On Forums: 8 years 3 months
Thanks: 90 time(s)
Russian Federation


Снова от тебя попытка обмана.Или от испуга что не успеешь перелить,даже не смотрел и не слушал что сюда вывалил (IMG:style_emoticons/default/1488.gif)

Страна Канада, Peterborough, Ontario

Жанр: Альтернатива.А точнее альт рок



Thanks:
Go to the top of the page
  Insert nick Quick quote
+Quote Post
post Nov 16 2018, 06:56:28
Post #3

Правь статус, ####!111
**************
Group: Металариец
Posts: 21,894
Releases: 15100
From: Г.Харьков
On Forums: 8 years 2 weeks
Thanks: 273905 time(s)
Unknown


aesteticvice,
покажи-в каком месте ты услышал метал? (IMG:style_emoticons/default/poke_g.gif)
голимый неформат! (IMG:style_emoticons/default/bye.gif)
Go to the top of the page
  Insert nick Quick quote
+Quote Post

Reply to this topicStart new topic
2 User(s) are reading this topic (2 Guests and 0 Anonymous Users)
0 Members:

 



- Lo-Fi Version Support form
Copyrights and abuse reports form
Time is now: 30th May 2020 - 22:09:03