Welcome Guest ( Log In | Register )

> Razgate - Welcome Mass Hysteria (2018), Thrash Metal
post Nov 16 2018, 01:45:54
Post #1

Правь статус, ####!111
**************
Group: Металариец
Posts: 27,654
Releases: 20089
From: Г.Харьков
On Forums: 9 years 5 months
Thanks: 406476 time(s)
Unknown


(IMG:http://metalarea.org/images/audiocovers/2018_Nov/acov_tid313080_thumb.jpg)

*Artist: Razgate
*Album: Welcome Mass Hysteria
*Year: 2018
*Genre: Thrash Metal
*Country: Italy (IMG:http://metalarea.org/forum/style_images/flags/Italy.png)
*Format: mp3@CBR320kbps
*Size: 117MB

Tracklist:
1. Sacrifice/Rebirth
2. Sweetest Poison
3. Welcome Mass Hysteria
4. The Agony Is Real
5. Sons of Rage
6. Light Up the Flame
7. Ride for a Fall
8. Skinwalker
9. Face of Apocalypse
10. 1348
******************************
Total playing time: 51:06



Extended info
Niccolò Olivieri Bass
Edoardo Natalini Drums
Giacomo James Burgassi Guitars, Vocals
Francesco Monaci Guitars (lead)


Technical info
(IMG:http://metalarea.org/images/spectrogram/2018_Nov/9e794039aa78ff02b28732af25974cda.png)
Input File: 03 Welcome Mass Hysteria.mp3
Channels : 2
Sample Rate : 44100
Precision : 16-bit
Duration : 00:04:45.41 = 12586405 samples = 21405.5 CDDA sectors
File Size : 11.4M
Bit Rate : 320k
Sample Encoding: MPEG audio (layer I, II or III)
Comments :
Title=Welcome Mass Hysteria
Artist=Razgate
Album=Welcome Mass Hysteria
Tracknumber=3/10
Year=2018
Genre=Thrash Metal
Discnumber=1/1



Register


Go to the top of the page
  Insert nick Quick quote
+Quote Post
 
Start new topic
Replies (1 - 3)
post Nov 16 2018, 18:16:03
Post #2

Правь статус, ####!111
**************
Group: Металариец
Posts: 27,654
Releases: 20089
From: Г.Харьков
On Forums: 9 years 5 months
Thanks: 406476 time(s)
Unknown


Cloud Mail 320
Register


Go to the top of the page
  Insert nick Quick quote
+Quote Post
post Jan 26 2019, 15:23:07
Post #3

Old School Metal
**************
Group: Металариец
Posts: 4,058
Releases: 0
From: г. Минск
On Forums: 12 years 6 months
Thanks: 9714 time(s)
Belarus


Razgate - Welcome Mass Hysteria (2018, Punishment 18 Records (P18R 142))


(IMG:https://img.discogs.com/NEPSJuNnUfvkNtIUAz0KupPtuMQ=/fit-in/600x600/filters:strip_icc():format(jpeg):mode_rgb():quality(90)/discogs-images/R-12371728-1533917999-8659.jpeg.jpg)


Lossless: FLAC (image+.cue+.log) + Covers


Register


Thanks:
Go to the top of the page
  Insert nick Quick quote
+Quote Post
post Oct 13 2021, 15:59:00
Post #4

Правь статус, ####!111
**************
Group: Металариец
Posts: 5,115
Releases: 468
From: MoscoW
On Forums: 14 years 10 months
Thanks: 7543 time(s)
Russian Federation


RAZGATE:
Go to the top of the page
  Insert nick Quick quote
+Quote Post

Reply to this topicStart new topic
2 User(s) are reading this topic (2 Guests and 0 Anonymous Users)
0 Members:

 



- Lo-Fi Version Support form
Copyrights and abuse reports form
Time is now: 16th October 2021 - 03:01:02